<?xml version="1.0" standalone="no"?>
<!DOCTYPE svg PUBLIC "-//W3C//DTD SVG 1.1//EN" "http://www.w3.org/Graphics/SVG/1.1/DTD/svg11.dtd" >
<svg xmlns="http://www.w3.org/2000/svg">
  <metadata>Created by iconfont</metadata>
  <defs>
  <font id="iconfont" horiz-adv-x="1024">
    <font-face
      font-family="iconfont"
      font-weight="400"
      font-stretch="normal"
      units-per-em="1024"
      ascent="896"
      descent="-128"
    />
      <missing-glyph />
      
      <glyph glyph-name="fuwuxieyi" unicode="&#59113;" d="M832 810.666667a42.666667 42.666667 0 0 0 42.666667-42.666667v-608a42.666667 42.666667 0 0 0-42.666667-42.666667H287.829333A52.906667 52.906667 0 0 1 234.666667 64.170667V42.666667H768a42.666667 42.666667 0 1 0 0-85.333334H192a42.666667 42.666667 0 0 0-42.666667 42.666667V672a138.24 138.24 0 0 0 138.666667 138.624L832 810.666667zM287.829333 725.333333A52.992 52.992 0 0 1 234.666667 672.170667v-480.042667l0.298666 0.128a138.325333 138.325333 0 0 0 53.034667 10.410667H789.333333V725.333333h-58.666666v-341.333333a42.666667 42.666667 0 0 0-68.266667-34.133333l-102.4 76.842666-102.4-76.8a42.666667 42.666667 0 0 0-68.266667 34.090667V725.333333H287.829333z m186.837334-256l59.733333 44.8 5.973333 3.754667a42.666667 42.666667 0 0 0 45.226667-3.754667l59.733333-44.8V725.333333h-170.666666v-256z"  horiz-adv-x="1024" />
      
      <glyph glyph-name="jinduwancheng" unicode="&#59071;" d="M512 844.8a460.8 460.8 0 1 0 0-921.6 460.8 460.8 0 0 0 0 921.6z m197.9904-299.9296a42.7008 42.7008 0 0 1-60.1088-5.5296l-153.4976-184.1664c-14.7456-17.7664-23.0912-27.5968-29.696-33.6384l-0.3072-0.2048-0.256 0.1536c-7.168 5.4272-16.384 14.4896-32.6656 30.8224L371.5072 414.208a42.7008 42.7008 0 0 1-60.3136-60.3136l61.952-61.952c14.4896-14.5408 28.5184-28.672 41.472-38.5024 12.288-9.216 27.8016-18.0224 47.2064-19.3536l8.5504-0.1024 8.4992 0.9216c19.2 3.072 33.8944 13.1584 45.2096 23.5008 12.032 10.9568 24.6784 26.3168 37.888 42.0864l153.5488 184.2688a42.7008 42.7008 0 0 1-5.5296 60.1088z"  horiz-adv-x="1024" />
      
      <glyph glyph-name="wanggouxinxi" unicode="&#59109;" d="M384.465455 86.574545a42.496 42.496 0 1 0 0-85.038545 42.496 42.496 0 0 0 0 84.992z m340.014545 0a42.496 42.496 0 1 0 0-85.038545 42.496 42.496 0 0 0 0 84.992zM241.105455 766.417455c11.264 0 22.574545 0 32.162909-0.884364 10.333091-0.930909 22.202182-3.165091 34.071272-9.728 5.911273-3.258182 11.403636-7.214545 16.384-11.776l4.840728-4.747636 6.190545-7.58691c5.445818-7.726545 8.890182-15.732364 11.496727-23.086545 3.165091-9.122909 5.864727-20.107636 8.610909-31.045818l7.726546-30.859637c4.747636-18.897455 5.911273-22.807273 7.121454-25.506909 5.771636-12.520727 17.221818-21.457455 30.72-24.017454 2.978909-0.558545 7.028364-0.744727 26.53091-0.744727h356.165818a84.992 84.992 0 0 0 76.008727-123.019637l-73.216-146.478545a127.534545 127.534545 0 0 0-114.036364-70.469818H368.034909l-10.286545-0.046546a42.542545 42.542545 0 0 1-36.119273-26.065454 160.116364 160.116364 0 0 1-3.397818-9.774546l-2.048-6.190545c-0.418909-1.256727-0.279273-1.117091-0.139637-0.372364-0.744727 0.093091-0.930909 0.046545 0.418909 0h450.56a42.496 42.496 0 1 0 0-84.992h-444.043636c-4.887273 0-11.031273-0.093091-16.384 0.512a84.992 84.992 0 0 0-73.634909 102.260364c1.117091 5.213091 3.118545 11.031273 4.654545 15.685818 2.001455 5.911273 3.630545 10.938182 5.585455 15.592727a127.488 127.488 0 0 0 57.250909 63.255273 127.162182 127.162182 0 0 0-12.101818 36.677818L269.963636 472.762182a105.937455 105.937455 0 0 0 32.488728 95.278545 127.394909 127.394909 0 0 0-9.960728 17.640728c-5.352727 11.682909-8.471273 24.994909-12.334545 40.494545l-7.726546 30.813091a309.853091 309.853091 0 0 1-6.423272 23.598545l-0.186182 0.372364h-0.279273c-4.840727 0.465455-11.636364 0.465455-24.436363 0.465455H172.032a42.496 42.496 0 0 0 0 85.038545h69.12z"  horiz-adv-x="1024" />
      
      <glyph glyph-name="shenfenxinxi" unicode="&#59110;" d="M512 304.174545c79.034182 0 155.880727-20.293818 218.577455-57.716363 48.686545-29.044364 86.760727-67.165091 110.917818-110.545455 10.938182-19.688727-2.187636-42.775273-24.203637-47.383272a1496.343273 1496.343273 0 0 0-610.583272 0c-22.016 4.654545-35.188364 27.694545-24.203637 47.383272 24.157091 43.380364 62.231273 81.454545 110.871273 110.545455 62.743273 37.422545 139.589818 57.716364 218.624 57.716363z m0 438.830546a199.493818 199.493818 0 1 0 0-399.034182 199.493818 199.493818 0 0 0 0 399.034182z"  horiz-adv-x="1024" />
      
      <glyph glyph-name="shoukuanxinxi" unicode="&#59111;" d="M866.676364 313.018182c0-100.305455-0.046545-150.434909-31.185455-181.620364-31.185455-31.185455-81.314909-31.185455-181.620364-31.185454H370.129455c-100.305455 0-150.434909 0.046545-181.573819 31.185454-31.185455 31.185455-31.185455 81.314909-31.185454 181.620364v70.935273h709.259636v-70.935273z m-532.014546-35.467637a35.467636 35.467636 0 1 1 0-70.888727h0.372364a35.467636 35.467636 0 0 1 0 70.888727H334.661818z m319.208727 354.629819c100.258909 0 150.434909 0 181.573819-31.138909 27.275636-27.229091 30.673455-69.026909 31.092363-146.152728H157.416727c0.465455 77.125818 3.863273 118.923636 31.138909 146.152728 31.185455 31.185455 81.314909 31.138909 181.573819 31.138909h283.74109z"  horiz-adv-x="1024" />
      
      <glyph glyph-name="lianxirenxinxi" unicode="&#59112;" d="M512 299.008c157.602909 0 198.283636-140.288 208.802909-212.712727 3.351273-23.272727-15.36-42.263273-38.818909-42.263273H342.062545c-23.458909 0-42.216727 19.037091-38.865454 42.216727 10.519273 72.471273 51.2 212.712727 208.802909 212.712728z m-212.48 42.449455a132.189091 132.189091 0 0 0 90.112-33.978182c-64.046545-41.565091-97.140364-114.362182-114.269091-178.501818H176.500364c-25.134545 0-44.404364 21.690182-38.306909 46.08 15.639273 62.464 57.297455 166.4 161.326545 166.4z m424.96 0c103.982545 0 145.687273-103.936 161.326545-166.4 6.097455-24.389818-13.218909-46.08-38.353454-46.08h-98.862546c-17.128727 64.186182-50.269091 136.936727-114.315636 178.501818a132.235636 132.235636 0 0 0 90.205091 33.978182zM512 681.425455c55.621818 0 105.006545-26.763636 136.005818-68.049455a127.441455 127.441455 0 1 0 0-203.776 169.704727 169.704727 0 0 0-136.005818-68.142545 169.797818 169.797818 0 0 0-136.145455 68.142545 126.743273 126.743273 0 0 0-76.334545-25.6 127.534545 127.534545 0 0 0 0 254.976c28.718545 0 55.109818-9.634909 76.381091-25.6A169.751273 169.751273 0 0 0 512 681.425455z"  horiz-adv-x="1024" />
      
      <glyph glyph-name="denglumima" unicode="&#59108;" d="M512 749.7216a182.8352 182.8352 0 0 0 182.8864-182.8864v-0.6144c56.832-1.7408 90.6752-8.0384 114.1248-31.488 32.1024-32.1024 32.1536-83.8656 32.1536-187.2896v-36.5568c0-137.8816 0-206.848-42.8544-249.7536-42.8544-42.8032-111.8208-42.8032-249.7536-42.8032H475.392c-137.8816 0-206.848 0-249.7024 42.8032-42.8032 42.8544-42.8032 111.872-42.8032 249.7536v36.5568c0 103.424 0 155.136 32.1024 187.2896 23.5008 23.4496 57.344 29.7472 114.176 31.488V566.784A182.8352 182.8352 0 0 0 512 749.7216z m0-329.1136a109.6192 109.6192 0 1 1-36.5568-212.992V128h73.1136v79.5136a109.7728 109.7728 0 0 1 72.6016 92.0576l0.6144 11.264c0 60.6208-49.152 109.7216-109.7728 109.7216z m0-73.1648a36.608 36.608 0 1 0 0-73.216 36.608 36.608 0 0 0 0 73.216z m0 329.1648c-60.5696 0-109.7216-49.152-109.7216-109.7216h219.4432c0 60.5696-49.152 109.7216-109.7216 109.7216z"  horiz-adv-x="1024" />
      
      <glyph glyph-name="weixinyanzheng" unicode="&#59105;" d="M686.336 541.3376c11.264 0 22.4256-1.024 33.5872-2.048-30.0032 139.264-180.48 243.3024-351.9488 243.3024C176.2304 781.9264 19.1488 652.3392 19.1488 487.7824c0-94.8224 52.3264-173.056 139.3152-233.6768l-35.072-103.936 122.0608 60.5696c43.776-8.5504 78.848-17.152 122.0608-17.152 11.264 0 21.8624 0.512 32.5632 1.536a264.1408 264.1408 0 0 0-10.7008 72.704c0.512 150.8352 131.2256 273.408 297.0624 273.408l-0.1024 0.1024zM498.688 635.0848c26.5216 0 43.7248-17.1008 43.7248-43.3664 0-25.7024-17.2032-43.4176-43.7248-43.4176-25.9584 0-52.3776 17.2032-52.3776 43.4176 0 26.2656 26.4192 43.3664 52.3776 43.3664zM254.5152 548.352c-25.856 0-52.3264 17.2032-52.3264 43.4176 0 26.2656 26.4704 43.3664 52.3264 43.3664 25.9584 0 43.776-17.1008 43.776-43.3664 0-25.7024-17.2544-43.4176-43.776-43.4176z m750.336-276.8896c0 138.24-139.3152 251.2896-296.5504 251.2896-165.7856 0-296.5504-112.9984-296.5504-251.2896 0-138.752 130.7648-251.3408 296.5504-251.3408 34.6112 0 69.7344 8.5504 104.8064 17.2032l95.5904-51.968-26.4192 86.3232c70.2464 52.8896 122.624 122.112 122.624 199.7824z m-392.704 43.4176c-17.2032 0-35.072 17.1008-35.072 34.816 0 17.152 17.8688 34.816 35.1232 34.816 26.4704 0 43.7248-17.152 43.7248-34.816 0-17.7152-17.2544-34.816-43.7248-34.816z m191.8464 0c-17.3568 0-34.6624 17.1008-34.6624 34.816 0 17.152 17.2544 34.816 34.6624 34.816 26.4192 0 43.7248-17.152 43.7248-34.816 0-17.7152-17.3056-34.816-43.7248-34.816z"  horiz-adv-x="1024" />
      
      <glyph glyph-name="shoujihaoyanzheng" unicode="&#59106;" d="M716.8 3.584c40.3968 0 73.1136 32.768 73.1648 73.1136V734.976c0 40.448-32.768 73.216-73.1648 73.216H351.0784c-40.3968 0-73.1136-32.768-73.1136-73.216v-658.2784c0-40.3968 32.768-73.1136 73.1136-73.1136H716.8zM442.5216 676.352a18.3296 18.3296 0 0 0 0 36.6592h182.784a18.3296 18.3296 0 0 0 0-36.608h-182.784z m91.4432-621.568a36.608 36.608 0 1 0 0 73.216 36.608 36.608 0 0 0 0-73.216z"  horiz-adv-x="1024" />
      
      <glyph glyph-name="shenfenrenzheng1" unicode="&#59107;" d="M512 298.7008c84.48 0 166.7072-21.6576 233.728-61.696 52.0704-31.0784 92.8256-71.8848 118.6816-118.272 11.6736-21.0944-2.4064-45.7728-25.9584-50.688a1600.1536 1600.1536 0 0 0-652.9024 0c-23.552 4.9152-37.632 29.5936-25.9584 50.688 25.856 46.3872 66.56 87.1936 118.6816 118.272 67.072 40.0384 149.1968 61.696 233.728 61.696zM512 768a213.3504 213.3504 0 1 0 0-426.7008A213.3504 213.3504 0 0 0 512 768z"  horiz-adv-x="1024" />
      
      <glyph glyph-name="wodeqianbao" unicode="&#59103;" d="M608 768c66.645333 0 121.002667 0.085333 163.797333-5.76 44.074667-5.973333 82.133333-19.029333 112.469334-49.834667 30.208-30.72 42.88-69.12 48.768-113.493333 5.717333-43.306667 5.632-98.389333 5.632-166.144v-97.536l-0.085334-29.738667L938.666667 298.666667c0-10.410667 0-20.693333-0.341334-30.293334-0.426667-38.229333-1.578667-71.210667-5.290666-99.242666-5.888-44.458667-18.56-82.858667-48.768-113.536-30.293333-30.805333-68.394667-43.818667-112.469334-49.834667-42.794667-5.845333-97.152-5.76-163.797333-5.76h-192c-66.645333 0-121.002667-0.085333-163.797333 5.76-44.074667 5.973333-82.133333 19.029333-112.469334 49.834667-30.208 30.72-42.88 69.12-48.768 113.493333C85.248 212.437333 85.333333 267.52 85.333333 335.274667v97.536c0 67.754667-0.085333 122.837333 5.632 166.101333 5.888 44.458667 18.56 82.858667 48.768 113.536 30.293333 30.805333 68.394667 43.818667 112.469334 49.834667C294.997333 768.085333 349.354667 768 416 768h192z m-192-85.333333c-69.12 0-116.608-0.085333-152.234667-4.949334-34.346667-4.693333-51.328-13.141333-63.146666-25.173333-11.989333-12.16-20.394667-29.653333-25.045334-64.853333C170.752 551.253333 170.666667 502.869333 170.666667 432.725333v-97.536c0-70.101333 0.085333-118.528 4.906666-154.88 4.693333-35.242667 13.056-52.736 25.002667-64.853333 11.861333-12.117333 28.842667-20.48 63.146667-25.173333 35.669333-4.906667 83.2-4.992 152.277333-4.992h192c69.12 0 116.608 0.085333 152.234667 4.949333 34.346667 4.693333 51.328 13.141333 63.146666 25.173333 10.922667 11.093333 18.773333 26.581333 23.637334 55.850667C835.669333 170.666667 823.253333 170.666667 810.666667 170.666667h-85.333334l-27.648 0.213333a235.946667 235.946667 0 0 0-24.832 1.706667c-16.384 2.218667-34.986667 7.594667-50.517333 23.04-15.488 15.530667-20.864 34.176-23.04 50.517333C597.248 261.333333 597.333333 279.808 597.333333 298.666667c0 18.901333-0.085333 37.376 1.962667 52.48 2.176 16.384 7.552 34.986667 23.04 50.517333 15.488 15.488 34.133333 20.864 50.517333 23.04 15.104 2.048 33.578667 1.962667 52.48 1.962667h85.333334c14.976 0 29.696 0 42.666666-0.981334v7.082667c0 70.101333-0.085333 118.528-4.906666 154.88-4.693333 35.242667-13.056 52.736-25.002667 64.853333-11.861333 12.074667-28.842667 20.48-63.146667 25.173334C724.565333 682.624 677.034667 682.666667 608 682.666667h-192zM725.333333 341.333333c-21.333333 0-33.024-0.085333-41.130666-1.152l-0.298667-0.085333-0.085333-0.298667c-1.066667-8.106667-1.152-19.84-1.152-41.130666 0-21.333333 0.085333-33.024 1.152-41.130667l0.085333-0.341333h0.298667c4.053333-0.554667 9.002667-0.853333 15.616-1.024L725.333333 256h85.333334c21.333333 0 33.024 0.085333 41.130666 1.152l0.341334 0.042667v0.341333c0.469333 3.285333 0.682667 7.125333 0.853333 11.946667 0.128 11.52 0.213333 23.722667 0.256 36.821333 0 16.554667-0.128 26.410667-1.066667 33.493333l-0.042666 0.298667-0.341334 0.085333C843.690667 341.248 832 341.333333 810.666667 341.333333h-85.333334z m-298.666666 256a42.666667 42.666667 0 1 0 0-85.333333H298.666667a42.666667 42.666667 0 1 0 0 85.333333h128z"  horiz-adv-x="1024" />
      
      <glyph glyph-name="wodehetong" unicode="&#59104;" d="M864 42.666667a42.666667 42.666667 0 1 0 0-85.333334H160a42.666667 42.666667 0 1 0 0 85.333334h704zM553.216 842.624a138.666667 138.666667 0 0 0 135.765333-167.509333l-0.085333-0.085334-60.074667-280.362666H832c41.216 0 74.666667-33.450667 74.666667-74.666667v-128a74.666667 74.666667 0 0 0-74.666667-74.666667h-640a74.666667 74.666667 0 0 0-74.666667 74.666667v128c0 41.216 33.450667 74.666667 74.666667 74.666667h203.221333l-60.16 280.362666v0.085334a138.709333 138.709333 0 0 0 135.765334 167.509333V842.666667h82.346666v-0.042667zM202.666667 202.666667h618.666666v106.666666H202.666667v-106.666666z m268.074666 554.666666A53.333333 53.333333 0 0 1 418.56 692.949333l63.957333-298.282666h59.008l64 298.282666a53.333333 53.333333 0 0 1-52.266666 64.384h-82.517334z"  horiz-adv-x="1024" />
      
      <glyph glyph-name="xiaoxizhongxin" unicode="&#59102;" d="M512 810.666667a281.045333 281.045333 0 0 0 279.296-250.026667l10.752-96.64 0.256-2.346667a298.666667 298.666667 0 0 1 40.106667-118.613333l1.152-2.048 24.661333-41.088c10.666667-17.834667 20.48-34.005333 26.88-47.658667 6.357333-13.397333 13.056-31.573333 9.813333-52.181333a85.333333 85.333333 0 0 0-29.482666-52.138667c-16-13.397333-35.072-16.981333-49.834667-18.474666-15.018667-1.493333-33.92-1.450667-54.698667-1.450667h-49.92a213.376 213.376 0 0 0-406.101333-38.954667A213.632 213.632 0 0 0 303.018667 128h-49.92c-20.778667 0-39.68-0.042667-54.656 1.450667-14.762667 1.493333-33.834667 5.077333-49.834667 18.474666a85.333333 85.333333 0 0 0-29.525333 52.138667c-3.242667 20.565333 3.498667 38.784 9.813333 52.181333 6.4 13.653333 16.213333 29.824 26.88 47.658667l24.704 41.088c0.64 1.066667 0.853333 1.578667 1.152 2.005333a298.666667 298.666667 0 0 1 40.106667 118.656l0.213333 2.346667 10.752 96.682667A281.045333 281.045333 0 0 0 512 810.666667zM391.466667 128c0.768-2.133333 1.408-4.266667 2.261333-6.314667a128.042667 128.042667 0 0 1 236.501333 0c0.853333 2.048 1.536 4.224 2.261334 6.314667H391.466667zM512 725.333333a195.712 195.712 0 0 1-194.474667-174.08l-10.752-96.682666-0.298666-2.602667a384.128 384.128 0 0 0-51.498667-152.618667l-1.322667-2.261333-24.661333-41.088c-11.690667-19.456-18.773333-31.274667-22.912-40.106667l-0.512-1.28 1.408-0.256c9.728-0.938667 23.466667-1.024 46.165333-1.024h517.76c22.656 0 36.437333 0.085333 46.165334 1.024l1.365333 0.256-0.512 1.28c-4.138667 8.832-11.221333 20.650667-22.869333 40.106667l-24.661334 41.088-1.322666 2.261333a384.128 384.128 0 0 0-51.498667 152.618667l-0.298667 2.602667-10.752 96.682666A195.712 195.712 0 0 1 512 725.333333z"  horiz-adv-x="1024" />
      
      <glyph glyph-name="yijia" unicode="&#59101;" d="M594.656 760.896c57.312 0 104.32 0.096 141.312-5.056 38.24-5.312 71.488-16.832 97.92-44.128 26.24-27.104 37.216-60.928 42.24-99.808 4.96-37.92 4.864-86.112 4.864-145.408v-291.296c0-56 0.128-102.24-4.704-136.384-4.736-33.408-16-69.44-51.36-87.2-35.904-18.016-71.264-4.48-100 12.48-29.184 17.312-64.512 46.08-107.072 80.64l-27.904 22.624c-25.28 20.48-41.6 33.6-54.976 42.048-12.512 7.84-18.656 9.024-22.976 9.024s-10.432-1.152-22.976-9.024c-13.376-8.416-29.696-21.6-54.944-42.048l-27.936-22.624c-42.56-34.56-77.856-63.328-107.04-80.64-28.736-16.992-64.128-30.496-100.032-12.48-35.36 17.76-46.592 53.792-51.328 87.2-4.8 34.144-4.736 80.384-4.736 136.384v291.296c0 59.296-0.064 107.52 4.864 145.408 5.056 38.88 16 72.704 42.24 99.84 26.432 27.264 59.68 38.784 97.92 44.096 37.024 5.12 84 5.056 141.312 5.056h165.312z m-165.312-76.8c-59.52 0-100.256-0.096-130.752-4.32-29.248-4.064-43.392-11.296-53.28-21.504-10.048-10.368-17.28-25.472-21.28-56.256-4.16-31.808-4.224-74.112-4.224-135.52v-291.296c0-58.528 0.096-98.144 3.968-125.6 1.92-13.44 4.416-21.12 6.56-25.344 1.728-3.392 2.784-3.776 3.2-3.968 0.32-0.192 0.96-0.672 3.968-0.096 4.128 0.768 11.2 3.328 22.464 9.984 23.136 13.696 53.184 38.016 97.824 74.208l27.904 22.624c23.744 19.264 44.224 35.968 62.496 47.424 19.104 12 39.552 20.8 63.808 20.8s44.736-8.8 63.84-20.8c18.24-11.456 38.72-28.16 62.496-47.424l27.872-22.624c44.64-36.192 74.72-60.48 97.856-74.208 11.264-6.656 18.304-9.216 22.432-9.984 3.072-0.576 3.68-0.064 4 0.096 0.416 0.192 1.472 0.608 3.2 3.968 2.144 4.256 4.64 11.904 6.528 25.344 3.872 27.456 4 67.072 4 125.6v291.296c0 61.408-0.096 103.68-4.224 135.52-4 30.784-11.232 45.888-21.28 56.256-9.888 10.24-24.064 17.44-53.312 21.504-30.496 4.224-71.2 4.32-130.752 4.32h-165.312z m165.728-95.68a32.032 32.032 0 0 0 49.184-41.024l-67.68-81.184h34.016a32 32 0 0 0 0-64h-66.496v-25.76h66.496a32 32 0 0 0 0-64h-66.496v-46.08a32 32 0 0 0-64 0v46.08h-66.432a32 32 0 1 0 0 64h66.432v25.76h-66.432a32 32 0 0 0 0 64h33.696l-67.68 81.184a32.032 32.032 0 0 0 49.184 41.024L512 488.64l83.104 99.744z"  horiz-adv-x="1024" />
      
      <glyph glyph-name="xihuan1" unicode="&#59100;" d="M512 625.472c80.96 126.464 267.104 138.72 362.656 15.584l13.216-17.024a260.448 260.448 0 0 0-27.488-349.44l-296.64-278.656c-4.512-4.288-9.952-9.408-15.104-13.376a59.776 59.776 0 0 0-25.12-11.904 59.84 59.84 0 0 0-23.008 0 59.84 59.84 0 0 0-25.152 11.904c-5.12 3.968-10.56 9.088-15.104 13.376l-296.64 278.656a260.416 260.416 0 0 0-27.424 349.44l13.184 17.024c95.52 123.104 281.6 110.88 362.624-15.584z"  horiz-adv-x="1024" />
      
      <glyph glyph-name="yinsishuoming" unicode="&#59096;" d="M467.669333 798.997333a128.021333 128.021333 0 0 0 94.762667-2.432l252.352-108.16a128 128 0 0 0 76.586667-133.504l-26.154667-209.258666a341.376 341.376 0 0 0-120.192-219.861334l-151.082667-125.909333a128 128 0 0 0-163.861333 0l-151.082667 125.909333a341.333333 341.333333 0 0 0-120.192 219.861334l-26.154666 209.258666a128 128 0 0 0 76.586666 133.525334l252.373334 108.138666 6.058666 2.432z m61.141334-80.853333a42.709333 42.709333 0 0 1-33.621334 0l-252.330666-108.16a42.666667 42.666667 0 0 1-25.536-44.501333l26.176-209.237334a256.021333 256.021333 0 0 1 90.112-164.906666l151.082666-125.888a42.666667 42.666667 0 0 1 54.613334 0l151.104 125.866666a256.042667 256.042667 0 0 1 90.112 164.928l26.176 209.237334a42.688 42.688 0 0 1-22.336 42.986666l-3.2 1.493334-252.330667 108.16z m-21.802667-144.810667a128 128 0 0 0 42.666667-248.682666v-92.650667a42.666667 42.666667 0 0 0-85.333334 0V324.693333a128 128 0 0 0 42.666667 248.661334z m0-85.333333a42.666667 42.666667 0 1 1 0-85.333333 42.666667 42.666667 0 0 1 0 85.333333z"  horiz-adv-x="1024" />
      
      <glyph glyph-name="zhanghaoxinxi" unicode="&#59091;" d="M512 810.666667c235.648 0 426.666667-191.018667 426.666667-426.666667s-191.018667-426.666667-426.666667-426.666667S85.333333 148.352 85.333333 384 276.352 810.666667 512 810.666667z m0-597.333334c-51.029333 0-99.84-13.610667-138.922667-37.717333-29.098667-17.962667-51.029333-40.618667-65.024-65.322667A339.797333 339.797333 0 0 1 512 42.666667c76.458667 0 147.029333 25.173333 203.946667 67.626666-14.08 24.704-35.925333 47.36-65.024 65.322667C611.84 199.765333 563.029333 213.333333 512 213.333333z m0 512a341.333333 341.333333 0 0 1-266.538667-554.410666 277.973333 277.973333 0 0 0 82.773334 77.269333C381.781333 281.258667 446.336 298.666667 512 298.666667c65.664 0 130.218667-17.408 183.765333-50.474667a278.016 278.016 0 0 0 82.773334-77.269333A341.333333 341.333333 0 0 1 512 725.333333z m0-85.333333a170.666667 170.666667 0 1 0 0-341.333333 170.666667 170.666667 0 0 0 0 341.333333z m0-85.333333a85.333333 85.333333 0 1 1 0-170.666667 85.333333 85.333333 0 0 1 0 170.666667z"  horiz-adv-x="1024" />
      
      <glyph glyph-name="zhaoxiangji" unicode="&#59092;" d="M619.072 776.512c9.216 0 17.92 0.064 26.368-0.896a136.64 136.64 0 0 0 98.88-61.056c4.608-7.104 8.448-14.976 12.544-23.232l35.072-70.08c4.736-9.408 14.4-15.36 24.96-15.36 71.936 0 130.304-58.368 130.304-130.304v-213.504c0-41.792 0-76.8-2.688-105.088-2.816-29.12-8.96-56.576-24.768-81.664a179.392 179.392 0 0 0-56.448-56.384c-25.088-15.808-52.544-22.016-81.664-24.832-28.352-2.752-63.36-2.688-105.088-2.688H347.52c-41.792 0-76.8 0-105.088 2.688-29.12 2.816-56.576 9.024-81.664 24.832a179.328 179.328 0 0 0-56.448 56.32c-15.808 25.152-21.952 52.608-24.768 81.728-2.752 28.352-2.688 63.36-2.688 105.088V475.52c0 71.936 58.368 130.304 130.304 130.304a27.904 27.904 0 0 1 24.96 15.36l35.072 70.08c4.096 8.256 7.936 16.128 12.544 23.232a136.64 136.64 0 0 0 98.88 61.056c8.448 0.96 17.152 0.896 26.368 0.896h214.144zM390.208 673.856a34.112 34.112 0 0 1-24.704-15.232 174.08 174.08 0 0 1-6.848-13.12l-34.944-70.016a130.368 130.368 0 0 0-116.608-72.064 27.904 27.904 0 0 1-27.904-27.84v-213.504c0-43.776 0.064-72.96 2.24-95.232 2.048-21.376 5.76-30.976 9.6-37.056a76.8 76.8 0 0 1 24.064-24.192c6.08-3.84 15.68-7.488 37.12-9.6 22.272-2.112 51.456-2.112 95.232-2.112h329.088c43.776 0 72.96 0 95.232 2.176 21.44 2.112 31.04 5.76 37.12 9.6a76.8 76.8 0 0 1 24.128 24.128c3.84 6.08 7.488 15.68 9.536 37.12 2.176 22.208 2.24 51.392 2.24 95.168V475.52a27.904 27.904 0 0 1-27.904 27.84 130.368 130.368 0 0 0-116.608 72.064l-34.944 70.016a175.488 175.488 0 0 1-6.848 13.12 34.112 34.112 0 0 1-24.704 15.232 162.112 162.112 0 0 1-14.72 0.256H404.928c-11.712 0-13.44-0.128-14.72-0.256z m139.2-162.752a170.688 170.688 0 0 0 153.216-169.792l-0.896-17.408A170.624 170.624 0 0 0 512 170.688l-17.472 0.896a170.752 170.752 0 0 0-152.32 152.32l-0.896 17.408A170.688 170.688 0 0 0 512 512l17.408-0.896zM512 409.6a68.352 68.352 0 0 1 0-136.512A68.288 68.288 0 0 1 512 409.6z"  horiz-adv-x="1024" />
      
      <glyph glyph-name="hetongxinxi" unicode="&#59093;" d="M809.088 298.666667c12.245333 0 25.045333 0.085333 35.925333-1.152 11.946667-1.365333 25.685333-4.693333 38.741334-14.08 13.056-9.429333 20.565333-21.461333 25.6-32.341334 4.608-9.898667 8.618667-22.101333 12.501333-33.706666l13.269333-39.850667c1.536-4.608 3.754667-11.093333 5.12-17.109333 1.536-6.997333 2.730667-16.64 0.128-27.733334s-8.021333-19.2-12.544-24.746666c-3.84-4.821333-8.789333-9.6-12.202666-13.013334l-108.8-108.842666c-5.504-5.504-12.629333-12.672-19.584-18.005334-7.936-6.058667-20.48-13.525333-37.546667-13.525333-17.024 0-29.568 7.466667-37.546667 13.525333-6.954667 5.333333-14.037333 12.501333-19.541333 18.005334l-108.8 108.8c-3.413333 3.456-8.32 8.234667-12.245333 13.013333a61.269333 61.269333 0 0 0-12.501334 24.746667 61.354667 61.354667 0 0 0 0.128 27.733333c1.365333 6.058667 3.584 12.544 5.12 17.152l13.269334 39.850667c3.882667 11.605333 7.850667 23.808 12.458666 33.706666 5.077333 10.88 12.544 22.912 25.6 32.341334l4.949334 3.242666c11.52 6.954667 23.424 9.642667 33.877333 10.837334 10.837333 1.237333 23.594667 1.152 35.84 1.152h118.784zM554.666667 810.666667c59.136 0 107.776 0.085333 146.133333-5.12 39.594667-5.290667 74.538667-16.896 102.528-44.885334 27.989333-27.989333 39.594667-62.933333 44.928-102.528C853.333333 619.733333 853.333333 571.093333 853.333333 512v-85.333333a42.666667 42.666667 0 1 0-85.333333 0V512c0 61.525333-0.085333 103.381333-4.266667 134.741333-4.053333 30.122667-11.221333 44.074667-20.736 53.589334-9.514667 9.514667-23.466667 16.64-53.589333 20.693333C658.048 725.333333 616.192 725.333333 554.666667 725.333333h-85.333334c-61.525333 0-103.381333-0.085333-134.741333-4.266666-30.122667-4.096-44.074667-11.221333-53.589333-20.736-9.514667-9.514667-16.64-23.466667-20.693334-53.589334C256 615.381333 256 573.525333 256 512v-256c0-61.525333 0.085333-103.381333 4.266667-134.741333 4.096-30.122667 11.221333-44.117333 20.736-53.589334 9.514667-9.514667 23.466667-16.64 53.589333-20.693333C365.952 42.666667 407.808 42.666667 469.333333 42.666667h42.666667a42.666667 42.666667 0 1 0 0-85.333334h-42.666667c-59.136 0-107.776-0.085333-146.133333 5.12-39.594667 5.290667-74.538667 16.896-102.528 44.885334-27.989333 27.989333-39.594667 62.933333-44.928 102.528C170.666667 148.266667 170.666667 196.906667 170.666667 256V512c0 59.136-0.085333 107.776 5.12 146.133333 5.290667 39.594667 16.896 74.538667 44.885333 102.528 27.989333 27.989333 62.933333 39.594667 102.528 44.928C361.6 810.666667 410.24 810.666667 469.333333 810.666667h85.333334z m119.082666-597.418667c-3.072-0.085333-5.418667-0.256-7.253333-0.384a139.093333 139.093333 0 0 1-2.602667-6.741333c-1.536-4.266667-3.2-9.301333-5.333333-15.701334l-12.416-37.12 103.552-103.594666 103.552 103.552-12.373333 37.12c-2.133333 6.442667-3.797333 11.434667-5.333334 15.786666-1.024 2.816-1.962667 4.992-2.688 6.698667-1.792 0.128-4.138667 0.341333-7.168 0.384-4.522667 0.085333-9.813333 0.085333-16.64 0.085333H690.346667c-6.741333 0-12.032 0-16.597334-0.085333zM512 298.666667a42.666667 42.666667 0 1 0 0-85.333334H384a42.666667 42.666667 0 1 0 0 85.333334h128z m128 170.666666a42.666667 42.666667 0 1 0 0-85.333333H384a42.666667 42.666667 0 1 0 0 85.333333h256z m-85.333333 170.666667a42.666667 42.666667 0 1 0 0-85.333333H384a42.666667 42.666667 0 1 0 0 85.333333h170.666667z"  horiz-adv-x="1024" />
      
      <glyph glyph-name="changjianwenti" unicode="&#59094;" d="M512 896a512 512 0 1 0 0-1024H128a128 128 0 0 0-128 128V384a512 512 0 0 0 512 512zM271.808 551.68v-436.672h55.872V551.616h-55.872zM478.72 617.792v-52.992h217.6v-363.392c0-21.312-10.24-32.256-29.888-32.256l-61.632 1.088 13.824-51.2h58.752c49.536 0 74.88 22.976 74.88 67.84V617.92H478.656zM400.832 473.344v-229.312H620.8V473.344H400.832z m165.312-52.48v-124.416H455.552V420.864h110.592zM320.768 630.592a618.88 618.88 0 0 0 71.424-106.048l49.024 25.344a660.032 660.032 0 0 1-69.76 103.104l-50.688-22.4z"  horiz-adv-x="1024" />
      
      <glyph glyph-name="shenfenrenzheng" unicode="&#59095;" d="M128 256a42.666667 42.666667 0 0 0 42.666667-42.666667v-21.418666c0-26.538667 0-43.946667 1.066666-57.173334 1.024-12.8 2.858667-18.090667 4.352-21.077333a51.2 51.2 0 0 1 22.912-22.912c2.986667-1.493333 8.234667-3.328 21.034667-4.352 13.312-1.066667 30.72-1.066667 57.216-1.066667H298.666667a42.666667 42.666667 0 1 0 0-85.333333h-21.418667c-25.173333 0-46.506667 0-64 1.365333-18.048 1.450667-35.584 4.650667-52.394667 13.056a136.533333 136.533333 0 0 0-61.098666 61.056c-8.405333 16.853333-11.605333 34.432-13.056 52.394667C85.333333 145.365333 85.333333 166.826667 85.333333 191.914667V213.333333a42.666667 42.666667 0 0 0 42.666667 42.666667z m768 0a42.666667 42.666667 0 0 0 42.666667-42.666667v-21.418666c0-25.173333 0-46.506667-1.365334-64-1.450667-18.005333-4.650667-35.584-13.056-52.437334a136.533333 136.533333 0 0 0-61.056-61.056c-16.853333-8.405333-34.432-11.605333-52.394666-13.056-17.493333-1.408-38.912-1.365333-64.042667-1.365333H725.333333a42.666667 42.666667 0 1 0 0 85.333333h21.418667c26.538667 0 43.946667 0 57.173333 1.066667 12.8 1.024 18.090667 2.858667 21.077334 4.352a51.2 51.2 0 0 1 22.912 22.912c1.493333 2.986667 3.328 8.234667 4.352 21.034667 1.066667 13.312 1.066667 30.72 1.066666 57.216V213.333333a42.666667 42.666667 0 0 0 42.666667 42.666667z m-384 42.666667c44.928 0 89.088-9.856 128-28.586667 38.912-18.730667 71.253333-45.653333 93.696-78.08a42.666667 42.666667 0 0 0-70.144-48.597333c-13.269333 19.2-33.664 36.864-60.586667 49.792A211.114667 211.114667 0 0 1 512 213.333333c-32.64 0-64.085333-7.168-91.008-20.138666-26.88-12.928-47.274667-30.634667-60.544-49.792A42.666667 42.666667 0 0 0 290.304 192c22.442667 32.426667 54.784 59.349333 93.696 78.08a296.405333 296.405333 0 0 0 128 28.586667z m0 384a170.666667 170.666667 0 1 0 0-341.333334 170.666667 170.666667 0 0 0 0 341.333334z m0-85.333334a85.333333 85.333333 0 1 1 0-170.666666 85.333333 85.333333 0 0 1 0 170.666666zM298.666667 768a42.666667 42.666667 0 1 0 0-85.333333h-21.418667c-26.538667 0-43.946667 0-57.173333-1.066667-12.8-1.024-18.090667-2.858667-21.077334-4.352a51.2 51.2 0 0 1-22.912-22.912c-1.493333-2.986667-3.328-8.234667-4.352-21.034667C170.666667 619.946667 170.666667 602.581333 170.666667 576.085333V554.666667a42.666667 42.666667 0 1 0-85.333334 0v21.418666c0 25.173333 0 46.506667 1.365334 64 1.450667 18.048 4.650667 35.584 13.056 52.394667A136.533333 136.533333 0 0 0 160.853333 753.578667c16.810667 8.405333 34.346667 11.605333 52.352 13.056C230.698667 768 252.16 768 277.248 768H298.666667z m448.085333 0c25.173333 0 46.506667 0 64-1.365333 18.005333-1.450667 35.584-4.650667 52.437333-13.056a136.533333 136.533333 0 0 0 61.056-61.098667c8.405333-16.810667 11.605333-34.346667 13.056-52.352 1.408-17.493333 1.365333-38.912 1.365334-64.042667V554.666667a42.666667 42.666667 0 1 0-85.333334 0v21.418666c0 26.538667 0 43.946667-1.066666 57.173334-1.024 12.8-2.858667 18.090667-4.352 21.077333a51.2 51.2 0 0 1-22.912 22.912c-2.986667 1.493333-8.234667 3.328-21.034667 4.352C790.613333 682.666667 773.248 682.666667 746.752 682.666667H725.333333a42.666667 42.666667 0 1 0 0 85.333333h21.418667z"  horiz-adv-x="1024" />
      
      <glyph glyph-name="duigou" unicode="&#59097;" d="M1223.826286 814.08c51.785143-43.008 58.806857-119.954286 15.798857-171.739429l-438.857143-526.336c-37.449143-45.202286-73.581714-89.088-107.958857-120.393142-32.475429-29.403429-74.605714-58.221714-129.316572-67.145143l-24.283428-2.486857-24.429714 0.292571c-55.442286 3.803429-99.913143 28.818286-134.729143 55.296-37.156571 28.086857-77.092571 68.315429-118.784 110.006857L84.406857 268.434286a121.856 121.856 0 1 0 172.617143 172.178285L433.590857 264.045714c46.811429-46.665143 72.996571-72.411429 93.476572-87.917714l0.731428-0.438857 0.585143 0.585143c19.017143 17.261714 42.861714 45.348571 85.138286 95.963428L1052.233143 798.427429A122.002286 122.002286 0 0 0 1223.826286 814.08z"  horiz-adv-x="1316" />
      
      <glyph glyph-name="guanyuwomen" unicode="&#59098;" d="M512 810.666667c235.648 0 426.666667-191.018667 426.666667-426.666667s-191.018667-426.666667-426.666667-426.666667S85.333333 148.352 85.333333 384 276.352 810.666667 512 810.666667z m0-85.333334a341.333333 341.333333 0 1 1 0-682.666666 341.333333 341.333333 0 0 1 0 682.666666z m0-256a42.666667 42.666667 0 0 0 42.666667-42.666666v-256a42.666667 42.666667 0 1 0-85.333334 0v256a42.666667 42.666667 0 0 0 42.666667 42.666666z m0 149.333334a51.2 51.2 0 1 0 0-102.442667A51.2 51.2 0 0 0 512 618.666667z"  horiz-adv-x="1024" />
      
      <glyph glyph-name="guanbi" unicode="&#59099;" d="M512 768c212.081778 0 384-171.918222 384-384S724.081778 0 512 0 128 171.918222 128 384 299.918222 768 512 768zM512 725.333333C323.498667 725.333333 170.666667 572.501333 170.666667 384s152.832-341.333333 341.333333-341.333333 341.333333 152.832 341.333333 341.333333S700.501333 725.333333 512 725.333333z m152.547556-152.547555a25.6 25.6 0 0 0 36.238222-36.238222L548.209778 384l152.576-152.547556a25.6 25.6 0 0 0-36.238222-36.238222L512 347.790222l-152.547556-152.576a25.6 25.6 0 0 0-36.238222 36.238222L475.790222 384l-152.576 152.547556a25.6 25.6 0 0 0 36.238222 36.238222L512 420.209778l152.547556 152.576z"  horiz-adv-x="1024" />
      
      <glyph glyph-name="liulan" unicode="&#59089;" d="M472.48 806.432c211.424 0 382.88-171.424 382.88-382.88 0-91.904-32.448-176.192-86.4-242.176l122.208-122.24a38.4 38.4 0 0 0-54.336-54.304l-122.208 122.24a381.216 381.216 0 0 0-242.144-86.4C261.024 40.672 89.6 212.096 89.6 423.552S261.024 806.432 472.48 806.432z m0-76.8A306.048 306.048 0 0 1 166.4 423.552a306.048 306.048 0 0 1 306.08-306.048 306.048 306.048 0 0 1 306.048 306.048 306.048 306.048 0 0 1-306.048 306.08z m-28.896-80.288a38.4 38.4 0 0 0 0-76.8 121.568 121.568 0 0 1-121.6-121.6 38.4 38.4 0 0 0-76.8 0 198.464 198.464 0 0 0 198.4 198.4z"  horiz-adv-x="1024" />
      
      <glyph glyph-name="xihuan" unicode="&#59090;" d="M512.032 628.32C594.144 758.272 784.64 771.2 882.24 645.376l13.472-17.408a265.44 265.44 0 0 0-27.968-356.16l-303.36-284.992c-4.672-4.384-10.176-9.6-15.36-13.632-5.76-4.416-14.08-9.792-25.376-12a60.32 60.32 0 0 0-23.168 0 60.416 60.416 0 0 0-25.376 12c-5.216 4.032-10.72 9.248-15.36 13.632l-303.36 284.96a265.472 265.472 0 0 0-28 356.192l13.504 17.408C239.488 771.2 429.92 758.272 512 628.32z m309.504-30.048c-68.352 88.128-205.568 73.344-253.6-27.296-22.432-47.008-89.344-47.008-111.776 0-48.032 100.64-185.248 115.392-253.6 27.296l-13.504-17.376a188.64 188.64 0 0 1 19.872-253.12l303.104-284.704 303.136 284.704a188.672 188.672 0 0 1 19.84 253.12l-13.472 17.376zM303.808 606.624a38.4 38.4 0 0 0 31.04-70.24 89.6 89.6 0 0 1-45.696-118.208 38.4 38.4 0 0 0-70.24-31.04 166.592 166.592 0 0 0 31.776 182.112 166.56 166.56 0 0 0 53.12 37.376z"  horiz-adv-x="1024" />
      
      <glyph glyph-name="xuanhao" unicode="&#59086;" d="M314.88 886.857143c22.747429 10.971429 50.102857 1.462857 61.074286-21.284572l1.353143-2.852571c5.997714-12.434286 19.090286-19.785143 32.841142-18.505143l11.702858 1.060572a124.489143 124.489143 0 0 0 132.754285-96.256c66.596571-2.011429 137.984-8.374857 202.459429-15.725715 128.987429-14.701714 231.021714-114.102857 244.918857-243.2 5.668571-52.809143 9.801143-109.165714 9.801143-160.987428l-0.182857-19.638857a1640.082286 1640.082286 0 0 0-9.654857-141.348572l-1.536-11.995428c-18.724571-123.172571-118.381714-216.941714-243.346286-231.168-78.445714-8.96-167.131429-16.384-245.065143-16.384l-29.696 0.292571c-60.196571 1.353143-125.001143 6.436571-185.526857 12.8l-29.842286 3.291429c-128.987429 14.701714-231.021714 114.102857-244.882286 243.2C16.347429 220.928 12.214857 277.284571 12.214857 329.142857c0 38.838857 2.340571 80.274286 5.888 120.832l3.949714 40.155429C35.474286 615.131429 131.657143 712.374857 254.902857 731.684571l11.995429 1.609143a2609.883429 2609.883429 0 0 0 185.088 15.140572 32.804571 32.804571 0 0 1-21.796572 5.814857l-11.702857-1.097143a124.525714 124.525714 0 0 0-123.538286 69.778286l-1.389714 2.889143A45.714286 45.714286 0 0 0 314.88 886.857143zM512 658.285714c-72.886857 0-157.696-7.021714-234.715429-15.798857-87.954286-10.020571-155.209143-77.056-164.352-162.121143-5.485714-51.017143-9.289143-103.862857-9.289142-151.259428 0-47.36 3.803429-100.205714 9.289142-151.222857 9.142857-85.028571 76.434286-152.100571 164.352-162.121143 77.019429-8.777143 161.828571-15.762286 234.715429-15.762286 72.886857 0 157.696 6.985143 234.715429 15.762286 87.954286 10.020571 155.209143 77.092571 164.352 162.121143 5.485714 51.017143 9.289143 103.862857 9.289142 151.222857 0 47.396571-3.803429 100.242286-9.289142 151.259428-9.142857 85.065143-76.434286 152.100571-164.352 162.121143C669.696 651.264 584.886857 658.285714 512 658.285714z m-158.281143-186.88c25.234286 0 45.714286-20.48 45.714286-45.714285v-52.516572h52.918857a45.714286 45.714286 0 0 0 0-91.428571h-52.918857v-52.992a45.714286 45.714286 0 0 0-91.428572 0v52.992H255.414857a45.714286 45.714286 0 0 0 0 91.428571h52.589714V425.691429c0 25.234286 20.48 45.714286 45.714286 45.714285z m402.614857-170.861714a51.565714 51.565714 0 1 0 0-103.131429 51.565714 51.565714 0 0 0 0 103.131429z m-82.870857 160.329143a51.565714 51.565714 0 1 0 0-103.131429 51.565714 51.565714 0 0 0 0 103.131429z"  horiz-adv-x="1024" />
      
      <glyph glyph-name="wode" unicode="&#59087;" d="M531.748571 304.347429c192.877714 0 325.376-85.394286 389.083429-138.459429 29.732571-24.795429 43.410286-62.500571 43.410286-101.193143 0-67.949714-45.933714-126.829714-113.115429-136.923428-75.264-11.264-184.905143-22.784-319.414857-22.784l-49.261714 0.512a2170.550857 2170.550857 0 0 0-240.347429 18.066285l-29.769143 4.205715c-67.218286 10.093714-113.188571 68.973714-113.188571 136.923428 0 36.278857 12.068571 71.68 38.070857 96.402286l5.376 4.790857c63.707429 53.028571 196.205714 138.459429 389.12 138.459429z m0-91.428572c-164.644571 0-277.101714-72.704-330.605714-117.284571-4.169143-3.474286-10.532571-12.580571-10.532571-30.939429 0-27.355429 17.298286-43.776 35.291428-46.482286 71.387429-10.715429 176.457143-21.796571 305.810286-21.796571 129.389714 0 234.459429 11.081143 305.846857 21.796571 17.993143 2.706286 35.254857 19.126857 35.254857 46.445715 0 18.395429-6.363429 27.501714-10.532571 30.976-53.504 44.617143-165.961143 117.284571-330.569143 117.284571z m-1.133714-3.766857a45.714286 45.714286 0 0 0 45.824-40.667429l0.292572-4.644571 0.731428-87.442286a45.750857 45.750857 0 0 0-91.428571-0.731428l-0.731429 87.405714 0.182857 4.681143a45.714286 45.714286 0 0 0 45.129143 41.398857z m0.365714 647.460571a256 256 0 1 0 0-512 256 256 0 0 0 0 512z m0-91.428571a164.571429 164.571429 0 1 1 0-329.142857 164.571429 164.571429 0 0 1 0 329.142857z"  horiz-adv-x="1097" />
      
      <glyph glyph-name="shouye" unicode="&#59088;" d="M410.989714 832.438857a185.526857 185.526857 0 0 0 202.166857-0.036571c45.860571-29.769143 98.011429-64.987429 135.131429-93.952 47.030857-36.681143 105.325714-89.965714 146.249143-128.512a185.782857 185.782857 0 0 0 57.6-118.747429c5.302857-58.550857 11.849143-142.372571 12.873143-205.641143 0.731429-46.884571-2.852571-119.844571-7.204572-187.428571l-0.768-8.96a189.988571 189.988571 0 0 0-178.834285-168.704c-84.553143-4.644571-185.929143-9.069714-266.093715-9.069714l-31.012571 0.182857c-74.24 0.914286-161.133714 4.827429-235.081143 8.886857a189.988571 189.988571 0 0 0-178.870857 168.704l-0.804572 8.96c-3.766857 59.136-7.021714 122.404571-7.277714 168.704l0.109714 18.724571c0.731429 47.469714 4.644571 106.496 8.777143 157.769143l4.132572 47.908572a185.856 185.856 0 0 0 51.419428 112.713142l6.070857 5.997715c40.886857 38.546286 99.108571 91.794286 146.102858 128.512 37.083429 28.964571 89.380571 64.182857 135.314285 93.988571z m152.393143-76.763428a94.098286 94.098286 0 0 1-102.619428 0.036571c-45.641143-29.586286-95.085714-62.976-128.804572-89.307429-43.373714-33.901714-98.998857-84.626286-139.702857-123.026285a94.354286 94.354286 0 0 1-29.147429-60.342857c-5.266286-58.368-11.593143-139.337143-12.544-198.948572-0.658286-42.752 2.706286-112.384 7.058286-180.114286a98.596571 98.596571 0 0 1 93.403429-92.233142c84.150857-4.608 183.515429-8.923429 261.083428-8.923429 77.568 0 176.896 4.315429 261.046857 8.923429a98.596571 98.596571 0 0 1 93.403429 92.233142c4.352 67.730286 7.716571 137.362286 7.058286 180.114286-0.950857 59.611429-7.277714 140.544-12.544 198.875429a94.354286 94.354286 0 0 1-29.220572 60.379428c-40.740571 38.4-96.402286 89.161143-139.812571 123.062857-33.755429 26.331429-83.090286 59.721143-128.658286 89.270858z m71.68-518.948572a45.714286 45.714286 0 0 0 69.083429-59.867428l-0.073143-0.073143-0.036572-0.036572-0.109714-0.146285-0.256-0.256-0.512-0.548572a56.502857 56.502857 0 0 0-4.388571-4.388571 106.642286 106.642286 0 0 0-9.728-7.899429c-8.118857-5.851429-19.382857-12.470857-34.596572-18.724571-30.390857-12.507429-75.849143-23.149714-142.445714-23.149715-66.56 0-112.054857 10.642286-142.482286 23.149715a168.667429 168.667429 0 0 0-34.56 18.724571 105.325714 105.325714 0 0 0-14.153143 12.288l-0.475428 0.548572-0.219429 0.256-0.109714 0.146285-0.073143 0.036572c-0.073143 0.073143 0.073143-0.036571 0 0.073143a45.714286 45.714286 0 0 0 69.046857 59.830857v0.073143l-0.109714 0.109714-0.219429 0.219428-0.365714 0.402286a30.208 30.208 0 0 1-1.170286 1.206857 78.372571 78.372571 0 0 1 17.188572-9.398857c17.517714-7.168 50.834286-16.237714 107.702857-16.237714 56.905143 0 90.221714 9.069714 107.702857 16.237714a78.189714 78.189714 0 0 1 16.566857 8.777143 22.710857 22.710857 0 0 1-0.548571-0.585143l-0.365714-0.365714-0.219429-0.256-0.073143-0.109714z"  horiz-adv-x="1024" />
      
      <glyph glyph-name="QAxiangqing" unicode="&#59085;" d="M576.213333 533.546667L695.893333 413.866667H256a29.866667 29.866667 0 0 1 0-59.733334h439.893333l-119.68-119.68 42.24-42.24L810.24 384l-191.786667 191.786667-42.24-42.24z"  horiz-adv-x="1024" />
      
      <glyph glyph-name="shili" unicode="&#59079;" d="M512 768a384 384 0 1 0 0-768A384 384 0 0 0 512 768z m0-597.376a42.624 42.624 0 1 1 0-85.248 42.624 42.624 0 0 1 0 85.248zM511.936 640a170.688 170.688 0 0 1-170.688-170.688h85.376c0 47.104 38.208 85.312 85.312 85.312h4.032c44.864 0 81.28-36.416 81.28-81.28v-21.888c0-21.952-14.08-41.408-34.816-48.32a136.32 136.32 0 0 1-93.184-129.28v-60.544h85.376v60.544c0 21.952 14.08 41.408 34.816 48.32a136.32 136.32 0 0 1 93.184 129.28v21.888A166.72 166.72 0 0 1 515.968 640h-4.032z"  horiz-adv-x="1024" />
      
      <glyph glyph-name="gouxuan" unicode="&#59068;" d="M832 780.8a76.8 76.8 0 0 0 76.8-76.8v-640a76.8 76.8 0 0 0-76.8-76.8H192a76.8 76.8 0 0 0-76.8 76.8V704a76.8 76.8 0 0 0 76.8 76.8h640z m-109.2608-267.6736a48.0768 48.0768 0 0 1-67.8912 1.6384l-201.6256-192.3584L369.152 402.688a48.0256 48.0256 0 0 1-66.304-69.376l117.248-112.0256a48.0256 48.0256 0 0 1 66.2528 0l234.8032 223.9488a48.0768 48.0768 0 0 1 1.5872 67.8912z"  horiz-adv-x="1024" />
      
      <glyph glyph-name="zhanghaoshezhi" unicode="&#59069;" d="M631.082667 797.653333c22.4-0.341333 42.154667-0.597333 58.666666-2.432 17.408-1.962667 34.304-5.973333 50.773334-15.445333 16.426667-9.472 28.330667-22.144 38.741333-36.266667 9.813333-13.312 19.925333-30.336 31.445333-49.536l60.842667-101.589333 0.384-0.597333 0.298667-0.597334 57.557333-103.466666c10.88-19.626667 20.565333-36.864 27.221333-52.053334 6.101333-14.08 10.709333-28.544 11.776-44.672l0.213334-6.997333c0-18.986667-4.992-35.626667-11.989334-51.626667-6.656-15.232-16.341333-32.512-27.221333-52.053333l-57.557333-103.509333-0.341334-0.597334-0.341333-0.597333L810.666667 74.069333c-11.52-19.2-21.632-36.266667-31.445334-49.621333-10.410667-14.08-22.314667-26.752-38.784-36.266667-16.426667-9.472-33.322667-13.44-50.730666-15.36-16.512-1.877333-36.266667-2.133333-58.666667-2.474666l-118.4-1.92h-1.365333l-118.4 1.92c-22.4 0.341333-42.154667 0.597333-58.666667 2.432-17.408 1.962667-34.304 5.973333-50.773333 15.445333-16.426667 9.472-28.330667 22.144-38.741334 36.266667-9.813333 13.312-19.925333 30.336-31.445333 49.536l-60.842667 101.589333-0.384 0.597333-0.298666 0.597334-57.557334 103.466666c-10.88 19.626667-20.565333 36.864-27.221333 52.053334-6.997333 16.042667-11.946667 32.682667-11.946667 51.669333 0 18.986667 4.949333 35.626667 11.946667 51.626667 6.656 15.232 16.341333 32.512 27.221333 52.053333l57.557334 103.509333 0.298666 0.597334 0.426667 0.597333 60.8 101.546667c11.52 19.2 21.632 36.266667 31.445333 49.621333 10.410667 14.08 22.314667 26.752 38.784 36.266667 16.426667 9.472 33.322667 13.44 50.730667 15.36 16.512 1.877333 36.266667 2.133333 58.666667 2.474666l118.4 1.92h1.365333l118.4-1.92z m-236.8-85.290666c-23.978667-0.384-39.04-0.64-50.517334-1.962667-10.624-1.152-14.890667-2.986667-17.578666-4.522667-2.730667-1.578667-6.4-4.394667-12.714667-12.970666-6.869333-9.301333-14.634667-22.186667-26.965333-42.794667l-60.586667-101.12-57.130667-102.784c-11.648-20.992-18.944-34.133333-23.594666-44.714667-4.266667-9.770667-4.864-14.336-4.864-17.493333 0-3.157333 0.597333-7.722667 4.864-17.493333 4.650667-10.624 11.946667-23.722667 23.594666-44.714667l57.130667-102.826667 60.586667-101.12c12.330667-20.565333 20.053333-33.450667 26.965333-42.752 6.314667-8.576 9.984-11.392 12.714667-12.970666 2.688-1.578667 6.954667-3.370667 17.578666-4.522667 11.52-1.28 26.538667-1.578667 50.517334-1.962667L512 53.76l117.717333 1.877333c23.978667 0.384 39.04 0.64 50.517334 1.962667 10.624 1.152 14.848 2.986667 17.578666 4.522667 2.730667 1.578667 6.4 4.394667 12.714667 12.970666 6.869333 9.301333 14.634667 22.186667 26.965333 42.794667l60.586667 101.12 57.130667 102.784c11.648 20.992 18.944 34.133333 23.594666 44.714667 4.266667 9.770667 4.864 14.336 4.864 17.493333l-0.128 2.688a54.954667 54.954667 0 0 1-4.736 14.805333c-4.650667 10.624-11.946667 23.722667-23.594666 44.714667l-57.173334 102.741333-60.544 101.162667c-12.330667 20.608-20.053333 33.493333-26.965333 42.794667-6.314667 8.576-9.984 11.392-12.672 12.970666-2.773333 1.578667-7.04 3.370667-17.621333 4.522667-11.52 1.28-26.538667 1.578667-50.517334 1.962667L512 714.24l-117.717333-1.834667zM512 554.666667a170.666667 170.666667 0 1 0 0-341.333334 170.666667 170.666667 0 0 0 0 341.333334z m0-85.333334a85.333333 85.333333 0 1 1 0-170.666666 85.333333 85.333333 0 0 1 0 170.666666z"  horiz-adv-x="1024" />
      
      <glyph glyph-name="shanchu" unicode="&#59070;" d="M896 554.666667c-20.48 0-33.678222-0.028444-43.804444-0.711111-9.699556-0.682667-13.425778-1.792-15.189334-2.56a42.666667 42.666667 0 0 1-23.096889-23.04c-0.739556-1.792-1.848889-5.518222-2.531555-15.246223-0.682667-10.097778-0.711111-23.324444-0.711111-43.776v-256c0-39.025778 0.085333-72.561778-3.498667-99.299555-3.754667-27.960889-12.231111-54.784-33.991111-76.515556-21.76-21.76-48.554667-30.264889-76.515556-34.019555-26.737778-3.584-60.302222-3.498667-99.328-3.498667h-170.666666c-39.025778 0-72.561778-0.085333-99.299556 3.498667-27.989333 3.754667-54.784 12.231111-76.515555 33.991111-21.76 21.76-30.264889 48.554667-34.019556 76.515555-3.584 26.737778-3.498667 60.302222-3.498667 99.328v256c0 20.48-0.028444 33.678222-0.711111 43.804445-0.682667 9.699556-1.792 13.425778-2.56 15.189333a42.666667 42.666667 0 0 1-23.04 23.096889c-1.792 0.739556-5.518222 1.848889-15.246222 2.531556C161.678222 554.638222 148.48 554.666667 128 554.666667V640h768v-85.333333z m-604.728889 0c4.010667-11.832889 5.688889-23.808 6.485333-35.754667 0.938667-13.681778 0.910222-30.293333 0.910223-49.578667v-256c0-41.415111 0.085333-68.209778 2.759111-87.950222 2.474667-18.488889 6.485333-24.291556 9.756444-27.562667 3.242667-3.242667 9.045333-7.253333 27.534222-9.728 19.740444-2.673778 46.535111-2.759111 87.950223-2.759111h170.666666c41.415111 0 68.209778 0.085333 87.950223 2.759111 18.488889 2.474667 24.291556 6.485333 27.562666 9.728 3.242667 3.271111 7.253333 9.073778 9.728 27.591112 2.673778 19.712 2.759111 46.506667 2.759111 87.921777v256c0 19.285333 0 35.896889 0.910223 49.578667 0.824889 11.946667 2.474667 23.893333 6.485333 35.754667H291.271111zM426.666667 426.666667a42.666667 42.666667 0 0 0 42.666666-42.666667v-128a42.666667 42.666667 0 0 0-85.333333 0V384a42.666667 42.666667 0 0 0 42.666667 42.666667z m170.666666 0a42.666667 42.666667 0 0 0 42.666667-42.666667v-128a42.666667 42.666667 0 0 0-85.333333 0V384a42.666667 42.666667 0 0 0 42.666666 42.666667zM512.028444 810.666667c20.878222 0 41.898667-1.706667 59.960889-5.176889 9.045333-1.706667 17.92-4.010667 25.941334-7.025778 6.371556-2.389333 14.791111-6.144 22.414222-12.288l3.214222-2.787556a42.666667 42.666667 0 0 0-55.125333-64.967111l-0.398222 0.142223c-2.275556 0.853333-6.257778 1.991111-12.088889 3.128888A243.057778 243.057778 0 0 1 512 725.333333c-16.696889 0-32.199111-1.393778-43.918222-3.640889-5.859556-1.137778-9.813333-2.275556-12.088889-3.128888l-0.369778-0.142223a42.666667 42.666667 0 0 0-58.197333 61.838223l3.043555 3.128888 3.214223 2.787556c7.623111 6.144 16.042667 9.898667 22.385777 12.288 8.021333 3.015111 16.924444 5.290667 25.969778 7.025778A327.310222 327.310222 0 0 0 512 810.666667z"  horiz-adv-x="1024" />
      
      <glyph glyph-name="maihaoxiangguan" unicode="&#59072;" d="M384 85.333333a42.666667 42.666667 0 1 0 0-85.333333 42.666667 42.666667 0 0 0 0 85.333333z m341.333333 0a42.666667 42.666667 0 1 0 0-85.333333 42.666667 42.666667 0 0 0 0 85.333333zM240.042667 768c11.306667 0 22.656 0.042667 32.298666-0.853333 10.368-0.938667 22.272-3.2 34.218667-9.770667a85.333333 85.333333 0 0 0 21.290667-16.64c9.258667-9.941333 14.336-20.906667 17.792-30.762667 3.157333-9.173333 5.888-20.181333 8.661333-31.146666l7.722667-31.018667c4.778667-18.986667 5.930667-22.912 7.168-25.642667a42.666667 42.666667 0 0 1 30.890666-24.064c2.986667-0.554667 7.04-0.768 26.581334-0.768h357.546666a85.333333 85.333333 0 0 0 76.373334-123.52l-73.557334-147.072A128 128 0 0 0 672.554667 256H367.36c-7.552 0-9.173333 0-10.368-0.128a42.666667 42.666667 0 0 1-36.266667-26.112c-0.426667-1.109333-0.938667-2.645333-3.370666-9.813333a395.349333 395.349333 0 0 1-2.005334-6.229334L315.221333 213.333333c-0.810667 0.085333-0.981333 0.085333 0.426667 0.042667L322.133333 213.333333H768a42.666667 42.666667 0 0 0 0-85.333333H322.133333c-4.906667 0-11.093333-0.042667-16.426666 0.554667a85.333333 85.333333 0 0 0-73.941334 102.570666c1.109333 5.248 3.114667 11.093333 4.693334 15.786667 1.962667 5.930667 3.626667 11.008 5.546666 15.701333a128 128 0 0 0 57.557334 63.530667 127.786667 127.786667 0 0 0-12.245334 36.821333l-18.346666 110.165334A106.325333 106.325333 0 0 0 301.653333 568.746667a127.786667 127.786667 0 0 0-9.984 17.706666c-5.418667 11.733333-8.533333 25.088-12.416 40.576l-7.765333 31.018667a315.946667 315.946667 0 0 1-6.4 23.68l-0.170667 0.341333-0.341333 0.042667A310.912 310.912 0 0 1 240.042667 682.666667H170.666667a42.666667 42.666667 0 0 0 0 85.333333h69.376zM374.186667 512a21.333333 21.333333 0 0 1-21.077334-24.832l18.389334-110.165333a42.666667 42.666667 0 0 1 42.069333-35.669334h258.986667a42.666667 42.666667 0 0 1 38.144 23.594667L784.256 512H374.186667z"  horiz-adv-x="1024" />
      
      <glyph glyph-name="shouhouxiangguan" unicode="&#59073;" d="M533.333333 810.666667c218.026667 0 395.776-181.077333 404.906667-408.192 3.754667-3.114667 7.424-6.4 10.837333-10.026667 20.48-21.76 32.256-51.456 32.256-82.944v-86.016a120.874667 120.874667 0 0 0-32.256-81.92 106.24 106.24 0 0 0-77.568-34.218667h-67.157333a42.666667 42.666667 0 0 0-42.666667 42.666667V384a42.666667 42.666667 0 0 0 42.666667 42.666667h50.688c-19.882667 168.106667-156.245333 298.282667-321.706667 298.282666S231.466667 594.773333 211.584 426.666667h8.106667a42.666667 42.666667 0 0 0 42.666666-42.666667v-251.306667c5.376-7.338667 13.994667-14.250667 26.453334-20.522666l1.536-0.768c21.205333-10.325333 50.816-17.792 88.576-22.229334 4.352 9.088 10.624 17.066667 18.304 23.552a85.333333 85.333333 0 0 0 32.426666 16.725334c21.461333 6.016 46.506667 5.376 71.082667-1.621334l0.768-0.213333c24.277333-7.04 46.08-19.754667 61.738667-36.266667a93.866667 93.866667 0 0 0 20.266666-31.872c5.248-14.250667 6.4-29.525333 2.688-44.373333a70.570667 70.570667 0 0 0-23.04-36.906667 85.333333 85.333333 0 0 0-32.426666-16.725333c-21.546667-6.058667-46.634667-5.376-71.168 1.621333-24.576 6.997333-46.634667 19.797333-62.464 36.48-1.024 1.066667-1.92 2.218667-2.858667 3.285334-58.282667 4.693333-104.96 15.36-140.373333 32.64-35.328 17.237333-60.202667 41.685333-73.088 71.850666h-28.288a106.24 106.24 0 0 0-77.568 34.176A120.917333 120.917333 0 0 0 42.666667 223.488v86.016c0 31.488 11.776 61.141333 32.256 82.944 15.061333 16.042667 34.133333 27.050667 54.869333 31.701333C148.949333 640.981333 322.346667 810.666667 533.333333 810.666667zM152.234667 341.162667a28.970667 28.970667 0 0 1-20.736-9.088l-0.298667-0.298667a32.384 32.384 0 0 1-8.661333-22.272v-85.674667c0.170667-8.106667 3.157333-15.616 8.405333-21.333333l0.256-0.298667a29.013333 29.013333 0 0 1 21.333333-9.386666h29.909334v148.352h-30.208z m689.322666-148.309334h29.952a29.013333 29.013333 0 0 1 21.290667 9.386667l0.256 0.213333a32.341333 32.341333 0 0 1 8.405333 21.76v85.290667a32.384 32.384 0 0 1-8.661333 22.272l-0.298667 0.298667a28.970667 28.970667 0 0 1-20.736 9.088h-30.208v-148.309334z"  horiz-adv-x="1024" />
      
      <glyph glyph-name="anquanxiangguan" unicode="&#59074;" d="M467.712 799.018667a128.042667 128.042667 0 0 0 88.661333 0l6.101334-2.432 252.288-108.16a128.042667 128.042667 0 0 0 76.629333-133.546667l-26.154667-209.194667a341.376 341.376 0 0 0-120.149333-219.904l-151.082667-125.866666a128.042667 128.042667 0 0 0-163.925333 0l-151.082667 125.866666a341.333333 341.333333 0 0 0-120.192 219.904L132.693333 554.88a128.042667 128.042667 0 0 0 76.629334 133.546667L461.653333 796.586667l6.101334 2.432z m61.098667-80.896a42.666667 42.666667 0 0 1-33.578667 0L242.858667 610.005333a42.666667 42.666667 0 0 1-25.472-44.544l26.112-209.194666a256.042667 256.042667 0 0 1 90.154666-164.949334l151.04-125.866666a42.666667 42.666667 0 0 1 51.626667-2.304l3.029333 2.261333 151.04 125.909333a256.042667 256.042667 0 0 1 88.405334 152.917334l1.792 12.032 26.112 209.194666a42.709333 42.709333 0 0 1-19.285334 41.258667l-6.229333 3.285333-252.373333 108.117334z m118.357333-182.442667a42.666667 42.666667 0 0 0 70.997333-47.36l-156.245333-234.325333a64 64 0 0 0-98.517333-9.728l-109.568 109.568a42.666667 42.666667 0 1 0 60.330666 60.330666l91.221334-91.178666 141.781333 212.693333z"  horiz-adv-x="1024" />
      
      <glyph glyph-name="fuwuzhongxin" unicode="&#59075;" d="M672 10.666667a42.666667 42.666667 0 1 0 0-85.333334h-320a42.666667 42.666667 0 0 0 0 85.333334h320zM517.802667 842.709333a362.666667 362.666667 0 0 0 211.413333-652.885333 37.418667 37.418667 0 0 1-14.506667-29.696v-0.128A74.666667 74.666667 0 0 0 640 85.333333H384a74.666667 74.666667 0 0 0-74.666667 74.666667v0.810667a35.84 35.84 0 0 1-14.634666 28.8l-0.298667 0.213333a361.984 361.984 0 0 0-144.384 267.008L149.333333 477.781333C148.48 674.474667 306.432 838.101333 503.466667 842.666667l14.378666 0.042666z m-12.373334-85.376c-150.186667-3.456-271.445333-128.64-270.762666-279.125333l0.554666-16a276.565333 276.565333 0 0 1 110.336-204.032A120.96 120.96 0 0 0 394.197333 170.666667H469.333333v131.669333l-115.498666 115.498667a42.666667 42.666667 0 1 0 60.330666 60.330666L512 380.330667l97.834667 97.834666a42.666667 42.666667 0 1 0 60.330666-60.330666L554.666667 302.336V170.666667h75.178666a122.709333 122.709333 0 0 0 47.36 86.741333l0.512 0.384A277.333333 277.333333 0 0 1 505.429333 757.333333z"  horiz-adv-x="1024" />
      
      <glyph glyph-name="qitawenti" unicode="&#59076;" d="M512 810.666667c235.648 0 426.666667-191.018667 426.666667-426.666667s-191.018667-426.666667-426.666667-426.666667S85.333333 148.352 85.333333 384 276.352 810.666667 512 810.666667z m0-85.333334a341.333333 341.333333 0 1 1 0-682.666666 341.333333 341.333333 0 0 1 0 682.666666z m0-554.666666a42.666667 42.666667 0 1 0 0-85.333334 42.666667 42.666667 0 0 0 0 85.333334z m4.053333 469.333333A166.656 166.656 0 0 0 682.666667 473.386667v-21.930667c0-58.624-37.546667-110.72-93.184-129.28-20.778667-6.912-34.816-26.368-34.816-48.298667V213.333333h-85.333334v60.544c0 58.624 37.546667 110.72 93.184 129.28 20.778667 6.912 34.816 26.368 34.816 48.298667v21.930667A81.322667 81.322667 0 0 1 516.053333 554.666667H512a85.333333 85.333333 0 0 1-85.333333-85.333334H341.333333a170.666667 170.666667 0 0 0 170.666667 170.666667h4.053333z"  horiz-adv-x="1024" />
      
      <glyph glyph-name="tishi1" unicode="&#59077;" d="M896 384a384 384 0 1 0-768 0 384 384 0 0 0 768 0z m-341.3504 170.6496a42.6496 42.6496 0 1 1-85.2992 0 42.6496 42.6496 0 0 1 85.2992 0z m0-384v256H469.3504v-256h85.2992z"  horiz-adv-x="1024" />
      
      <glyph glyph-name="wodeliulan" unicode="&#59078;" d="M256.042667 640a42.666667 42.666667 0 0 0 0-85.333333H197.077333l-42.666666-85.333334H341.333333a127.573333 127.573333 0 0 0 95.189334-42.666666h150.954666A127.573333 127.573333 0 0 0 682.666667 469.333333h187.008l-42.666667 85.333334H768a42.666667 42.666667 0 1 0 0 85.333333h85.333333l5.973334-0.426667c13.781333-1.962667 25.856-10.538667 32.213333-23.168l85.333333-170.666666c5.973333-11.946667 5.76-25.344 0.64-36.693334 2.432-7.893333 3.797333-16.298667 3.797334-25.045333v-170.666667a128 128 0 0 0-128-128h-128a170.666667 170.666667 0 0 0-170.666667 170.666667v85.333333h-85.333333v-85.333333a170.666667 170.666667 0 0 0-170.666667-170.666667H170.666667a128 128 0 0 0-128 128v170.666667c0 8.789333 1.28 17.28 3.754666 25.258667a42.581333 42.581333 0 0 0 0.768 36.48l85.333334 170.666666 3.072 5.162667A42.666667 42.666667 0 0 0 170.666667 640h85.333333zM128 213.333333a42.666667 42.666667 0 0 1 42.666667-42.666666h128a85.333333 85.333333 0 0 1 85.333333 85.333333v85.333333a42.666667 42.666667 0 0 1-42.666667 42.666667H128v-170.666667z m554.666667 170.666667a42.666667 42.666667 0 0 1-42.666667-42.666667v-85.333333a85.333333 85.333333 0 0 1 85.333333-85.333333h128a42.666667 42.666667 0 0 1 42.666667 42.666666v170.666667h-213.333333z"  horiz-adv-x="1024" />
      
      <glyph glyph-name="maihaoxiangguan1" unicode="&#59080;" d="M744.021333 810.666667c14.933333 0 29.952 0.085333 42.496-1.408 11.989333-1.450667 25.344-4.650667 37.973334-12.842667l5.376-3.84 4.992-4.266667c11.008-10.282667 17.322667-22.4 21.632-33.706666 4.48-11.818667 8.106667-26.368 11.690666-40.874667l51.370667-205.44c1.962667-7.808 3.84-15.232 5.077333-21.546667 1.28-6.4 2.474667-14.378667 1.877334-23.210666a85.376 85.376 0 0 0-58.88-75.392c-4.949333-1.621333-9.813333-2.432-14.293334-2.986667V170.666667c0-39.04 0.085333-72.576-3.498666-99.328-3.754667-27.946667-12.288-54.784-34.005334-76.501334-21.76-21.76-48.554667-30.250667-76.501333-34.005333C712.533333-42.752 678.997333-42.666667 640-42.666667H384c-39.04 0-72.618667-0.085333-99.328 3.498667-27.989333 3.754667-54.784 12.245333-76.501333 34.005333-21.76 21.76-30.250667 48.512-34.005334 76.501334-2.688 20.053333-3.328 43.946667-3.456 71.125333L170.666667 170.666667v214.442666a77.013333 77.013333 0 0 0-14.293334 2.986667 85.333333 85.333333 0 0 0-58.88 75.434667 88.405333 88.405333 0 0 0 1.877334 23.210666c1.237333 6.314667 3.072 13.738667 5.034666 21.546667l51.370667 205.44c3.626667 14.506667 7.210667 29.056 11.733333 40.917333 4.906667 12.842667 12.416 26.88 26.624 37.973334 14.165333 11.050667 29.610667 14.976 43.306667 16.64 12.544 1.493333 27.562667 1.408 42.496 1.408h464.085333zM448 42.666667h128v170.666666h-128v-170.666666z m64 382.250666A127.786667 127.786667 0 0 0 416 384l-5.333333 0.042667a127.786667 127.786667 0 0 0-90.624 40.789333A128 128 0 0 0 256 387.498667V170.666667l0.384-52.138667a337.066667 337.066667 0 0 1 2.346667-35.84c2.517333-18.474667 6.528-24.277333 9.770666-27.52 3.242667-3.242667 9.045333-7.253333 27.52-9.770667 16.128-2.133333 36.949333-2.474667 66.645334-2.56V213.333333a85.333333 85.333333 0 0 0 85.333333 85.333334h128a85.333333 85.333333 0 0 0 85.333333-85.333334v-170.496c29.653333 0.085333 50.474667 0.426667 66.602667 2.56 18.517333 2.517333 24.32 6.528 27.562667 9.770667 3.242667 3.242667 7.253333 9.045333 9.728 27.562667 2.688 19.712 2.773333 46.506667 2.773333 87.936v216.832a127.957333 127.957333 0 0 0-64.085333 37.333333A127.786667 127.786667 0 0 0 608 384l-5.333333 0.042667A127.744 127.744 0 0 0 512 424.917333zM279.893333 725.333333c-17.024 0-26.026667-0.085333-32.341333-0.853333h-0.298667l-0.085333-0.256c-2.261333-5.973333-4.522667-14.72-8.618667-31.232L187.178667 487.594667c-2.133333-8.704-3.413333-13.653333-4.096-17.322667l-0.128-0.64 0.853333-0.085333c3.84-0.213333 9.130667-0.213333 18.261333-0.213334 25.045333 0 30.378667 0.298667 33.962667 1.109334 13.354667 3.157333 24.490667 12.501333 29.738667 25.173333 1.408 3.413333 2.56 8.448 6.570666 32.597333 0.426667 2.730667 0.938667 5.888 1.450667 8.362667a69.546667 69.546667 0 0 0 1.365333 5.546667c0.298667 1.066667 2.048 7.466667 6.698667 13.952l3.754667 4.608a46.933333 46.933333 0 0 0 68.736 0l3.754666-4.608 2.986667-4.736c2.474667-4.608 3.498667-8.448 3.754667-9.216 0.64-2.261333 1.109333-4.266667 1.365333-5.546667l1.450667-8.362667 3.456-20.906666 0.597333-3.328A42.666667 42.666667 0 0 1 412.586667 469.333333h6.741333a42.666667 42.666667 0 0 1 40.917333 34.645334l0.597334 3.370666 3.413333 20.864c0.469333 2.730667 0.981333 5.888 1.493333 8.362667a69.12 69.12 0 0 0 1.365334 5.546667c0.298667 1.066667 2.048 7.466667 6.698666 13.952l3.754667 4.608a46.933333 46.933333 0 0 0 68.736 0l3.754667-4.608 2.986666-4.736c2.474667-4.608 3.498667-8.448 3.754667-9.216 0.64-2.261333 1.109333-4.266667 1.365333-5.546667l1.450667-8.362667 3.456-20.906666 0.597333-3.328a42.666667 42.666667 0 0 1 40.917334-34.645334h6.741333a42.666667 42.666667 0 0 1 40.917333 34.645334l0.597334 3.370666 3.413333 20.864c0.469333 2.730667 0.981333 5.888 1.493333 8.362667a69.12 69.12 0 0 0 1.365334 5.546667c0.298667 1.066667 2.048 7.466667 6.698666 13.952l3.754667 4.608a46.933333 46.933333 0 0 0 68.736 0l3.754667-4.608 2.986666-4.736c2.474667-4.608 3.498667-8.448 3.754667-9.216 0.64-2.261333 1.109333-4.266667 1.365333-5.546667 0.512-2.474667 0.981333-5.632 1.450667-8.362667 4.010667-24.149333 5.12-29.184 6.528-32.597333 5.290667-12.672 16.384-22.058667 29.781333-25.173333 3.584-0.853333 8.96-1.109333 33.92-1.109334 9.173333 0 14.506667 0 18.346667 0.213334l0.768 0.085333-0.085333 0.64a406.869333 406.869333 0 0 1-4.138667 17.322667l-51.370667 205.397333c-4.138667 16.512-6.4 25.258667-8.618666 31.232l-0.128 0.213333-0.256 0.042667c-6.314667 0.768-15.36 0.853333-32.384 0.853333H279.936z"  horiz-adv-x="1024" />
      
      <glyph glyph-name="shangchuan" unicode="&#59081;" d="M512 671.15008c17.2032 0 31.15008-13.9264 31.15008-31.15008v-224.84992H768a31.17056 31.17056 0 0 0 0-62.32064H543.15008V128a31.17056 31.17056 0 0 0-62.32064 0V352.84992H256a31.17056 31.17056 0 0 0 0 62.32064h224.84992V640c0 17.2032 13.9264 31.15008 31.15008 31.15008z"  horiz-adv-x="1024" />
      
      <glyph glyph-name="gujiaxiangguan" unicode="&#59082;" d="M725.333333 810.666667a213.333333 213.333333 0 0 0 213.333334-213.333334v-426.666666a213.333333 213.333333 0 0 0-213.333334-213.333334H298.666667a213.333333 213.333333 0 0 0-213.333334 213.333334V597.333333a213.333333 213.333333 0 0 0 213.333334 213.333334h426.666666zM298.666667 725.333333a128 128 0 0 1-128-128v-426.666666a128 128 0 0 1 128-128h426.666666a128 128 0 0 1 128 128V597.333333a128 128 0 0 1-128 128H298.666667z m324.138666-112.938666a42.752 42.752 0 0 0 65.578667-54.698667l-90.24-108.245333h45.354667a42.666667 42.666667 0 0 0 0-85.333334h-88.661334v-34.432h88.661334a42.666667 42.666667 0 0 0 0-85.333333h-88.661334v-61.354667a42.666667 42.666667 0 1 0-85.333333 0v61.354667H380.928a42.666667 42.666667 0 0 0 0 85.333333h88.576v34.432H380.928a42.666667 42.666667 0 1 0 0 85.333334H425.813333L335.616 557.696a42.752 42.752 0 0 0 65.578667 54.698667L512 479.402667l110.805333 132.992z"  horiz-adv-x="1024" />
      
      <glyph glyph-name="bianji" unicode="&#59083;" d="M672 802.752c7.936 0 15.872-1.152 23.424-3.52l7.424-2.688 7.232-3.392c6.848-3.712 13.12-8.448 18.688-14.08l178.112-178.048 5.376-5.824c3.392-4.096 6.4-8.512 8.896-13.12l3.392-7.232 2.688-7.424a80 80 0 0 0-20.16-80.128L499.968 80H864a48 48 0 0 0 0-96H192A80 80 0 0 0 112 64v178.816c0 10.368 1.984 20.672 5.952 30.336l3.392 7.04c3.648 6.976 8.32 13.312 13.824 18.88l480.064 480c7.424 7.488 16.192 13.44 25.92 17.472l7.424 2.688a80 80 0 0 0 23.424 3.52z m-464-566.656v-156.096h156.16l336 336L544 572.16l-336-336zM611.84 640L768 483.84l60.16 60.16-156.16 156.16-60.16-60.16z"  horiz-adv-x="1024" />
      
      <glyph glyph-name="fanhui" unicode="&#59084;" d="M384 426.688l30.208-30.208L273.664 256h345.024a192 192 0 0 1 0 384H384a42.688 42.688 0 0 0 0 85.376h234.688a277.376 277.376 0 0 0 0-554.688h-344.96l140.48-140.544-60.352-60.288-213.376 213.312-30.08 30.208 243.456 243.456 30.144-30.144z"  horiz-adv-x="1024" />
      
      <glyph glyph-name="yanzhengma" unicode="&#59061;" d="M597.333333-42.666667c39.025778 0 72.590222-0.113778 99.328 3.470223 27.989333 3.811556 54.784 12.288 76.515556 34.019555s30.208 48.526222 34.019555 76.515556c3.584 26.737778 3.470222 60.302222 3.470223 99.328v426.666666c0 39.025778 0.113778 72.590222-3.527111 99.328-3.754667 27.989333-12.231111 54.784-33.962667 76.515556s-48.526222 30.208-76.515556 33.962667c-26.737778 3.640889-60.302222 3.527111-99.328 3.527111h-170.666666c-39.025778 0-72.590222 0.113778-99.328-3.527111-27.989333-3.754667-54.784-12.231111-76.515556-33.962667s-30.208-48.526222-33.962667-76.515556c-3.640889-26.737778-3.527111-60.302222-3.527111-99.328v-426.666666c0-39.025778-0.113778-72.590222 3.527111-99.328 3.754667-27.989333 12.231111-54.784 33.962667-76.515556s48.526222-30.208 76.515556-34.019555c26.737778-3.584 60.302222-3.470222 99.328-3.470223h170.666666zM455.168 682.666667a54.044444 54.044444 0 0 0-12.629333 0.739555 21.390222 21.390222 0 0 0-15.075556 15.075556 53.703111 53.703111 0 0 0-0.739555 12.629333c0 3.299556 0 4.949333 0.398222 6.314667a10.638222 10.638222 0 0 0 7.509333 7.509333L440.888889 725.333333h142.222222c3.299556 0 5.006222 0 6.314667-0.398222a10.638222 10.638222 0 0 0 7.509333-7.509333 26.396444 26.396444 0 0 0 0.398222-6.314667l-0.113777-7.793778a22.869333 22.869333 0 0 0-0.568889-4.835555l-2.218667-5.176889a21.447111 21.447111 0 0 0-12.913778-9.898667l-4.835555-0.625778A181.703111 181.703111 0 0 0 568.888889 682.666667h-113.777778zM426.666667 42.666667c-41.415111 0-68.209778 0.056889-87.950223 2.730666-18.488889 2.503111-24.291556 6.542222-27.534222 9.784889-3.242667 3.242667-7.281778 9.045333-9.784889 27.534222-2.673778 19.740444-2.730667 46.535111-2.730666 87.950223v426.666666c0 41.415111 0.056889 68.209778 2.730666 87.950223 2.503111 18.488889 6.542222 24.291556 9.784889 27.534222 3.242667 3.242667 9.045333 7.281778 27.534222 9.784889 1.024 0.170667 2.048 0.170667 3.128889 0.284444l-0.341333-3.982222C341.333333 715.491556 341.333333 712.021333 341.333333 711.111111c0-1.137778-0.739556-18.432 3.584-34.702222 9.898667-36.807111 38.684444-65.592889 75.491556-75.491556 16.270222-4.323556 33.564444-3.584 34.702222-3.584h113.777778c1.308444 0 18.545778-0.739556 34.702222 3.584a106.723556 106.723556 0 0 1 75.434667 75.491556c4.380444 16.270222 3.640889 33.564444 3.640889 34.702222 0 0.910222 0 4.380444-0.113778 7.793778 0 1.024-0.227556 2.389333-0.398222 3.982222 1.024-0.113778 2.048-0.113778 3.072-0.284444 18.488889-2.503111 24.291556-6.542222 27.534222-9.784889 3.242667-3.242667 7.281778-9.045333 9.784889-27.534222 2.673778-19.740444 2.730667-46.535111 2.730666-87.950223v-426.666666c0-41.415111-0.056889-68.209778-2.730666-87.950223-2.503111-18.488889-6.542222-24.291556-9.784889-27.534222-3.242667-3.242667-9.045333-7.281778-27.534222-9.784889-19.740444-2.673778-46.535111-2.730667-87.950223-2.730666h-170.666666z m85.276444 42.666666a42.666667 42.666667 0 1 1 0 85.333334 42.666667 42.666667 0 0 1 0-85.333334z"  horiz-adv-x="1024" />
      
      <glyph glyph-name="yincang" unicode="&#59062;" d="M317.098667 531.072c-54.912-40.405333-99.626667-88.746667-128.085334-123.306667-8.917333-10.794667-13.184-16.085333-15.658666-20.309333-1.664-2.730667-1.450667-3.114667-1.450667-3.456 0-0.341333-0.213333-0.725333 1.450667-3.456 2.474667-4.224 6.741333-9.514667 15.658666-20.309333 29.269333-35.541333 75.690667-85.76 132.778667-126.848 57.386667-41.301333 122.624-71.253333 190.208-71.253334 47.232 0 93.354667 14.72 136.405333 37.632l50.133334-50.133333C643.84 117.504 580.48 93.866667 512 93.866667c-87.509333 0-166.698667 38.485333-230.101333 84.053333-63.616 45.824-114.304 100.906667-145.621334 138.922667-14.08 17.066667-32.597333 37.12-32.597333 67.157333 0 29.994667 18.517333 50.048 32.597333 67.157333 29.013333 35.242667 74.752 85.162667 131.968 128.768l48.853334-48.853333z m96.725333 127.36A324.693333 324.693333 0 0 0 512 674.133333c87.509333 0 166.698667-38.485333 230.101333-84.053333 63.616-45.824 114.304-100.906667 145.621334-138.922667 14.08-17.066667 32.597333-37.12 32.597333-67.157333 0-29.994667-18.517333-50.048-32.597333-67.157333-16.213333-19.669333-37.674667-43.818667-63.402667-68.949334l95.786667-95.786666-48.213334-48.213334-682.666666 682.666667 48.213333 48.213333L413.866667 658.432z m5.973333-230.058667c-6.485333-13.44-10.24-28.458667-10.24-44.373333A102.4 102.4 0 0 1 512 281.6c15.914667 0 30.890667 3.754667 44.373333 10.24l49.92-50.005333a170.666667 170.666667 0 0 0-236.544 236.544L419.84 428.373333zM512 605.866667c-14.08 0-28.074667-1.28-41.856-3.754667l47.573333-47.573333a170.581333 170.581333 0 0 0 164.778667-164.778667l93.568-93.568a809.898667 809.898667 0 0 1 58.922667 64.042667c8.917333 10.794667 13.184 16.085333 15.658666 20.309333 1.664 2.730667 1.450667 3.114667 1.450667 3.456 0 0.341333 0.213333 0.725333-1.450667 3.456-2.474667 4.224-6.741333 9.514667-15.658666 20.309333-29.269333 35.541333-75.690667 85.76-132.778667 126.848C644.864 575.914667 579.584 605.866667 512 605.866667z"  horiz-adv-x="1024" />
      
      <glyph glyph-name="zhuye" unicode="&#59063;" d="M512 789.7088c34.7648 0 64.512-12.9536 93.8496-32.3584 28.416-18.7904 60.5184-46.336 99.4816-79.7184l42.6496-36.5568c41.1136-35.2768 71.8848-60.5184 88.2176-96 16.3328-35.5328 15.4624-75.264 15.4624-129.4848v-180.9408c0-39.0656 0.0512-72.448-3.4816-99.072-3.7376-27.7504-12.1344-54.1696-33.536-75.52-21.3504-21.4016-47.7696-29.7472-75.52-33.4848-26.624-3.584-60.0576-3.5328-99.1232-3.5328h-256c-39.0656 0-72.4992-0.0512-99.072 3.5328-27.8016 3.7376-54.1696 12.1344-75.52 33.4848-21.3504 21.3504-29.7472 47.7696-33.4848 75.52-3.584 26.624-3.5328 60.0064-3.5328 99.072V415.5904c0 54.1696-0.8704 93.952 15.4624 129.4848 16.384 35.4816 47.104 60.7232 88.2688 96l42.6496 36.5568c38.912 33.3824 71.0144 60.928 99.4304 79.7184 29.3888 19.456 59.0848 32.3584 93.7984 32.3584zM448 279.04a1.7408 1.7408 0 0 1-1.6896-1.6896v-172.3904h131.3792v172.3904a1.6896 1.6896 0 0 1-1.6896 1.6896h-128zM512 707.7888c-12.5952 0-26.4704-4.096-48.64-18.7904-23.1424-15.3088-50.7392-38.8096-91.2896-73.5232l-42.6496-36.608c-46.848-40.1408-60.0576-52.6336-67.1744-67.9936-7.0656-15.4112-7.936-33.5872-7.936-95.232v-180.992c0-41.3696 0.1024-68.3008 2.7648-88.1664 2.5088-18.6368 6.656-24.9344 10.24-28.5184 3.584-3.584 9.8816-7.7312 28.5184-10.24 16.5888-2.2528 37.9904-2.56 68.608-2.6112v172.2368c0 46.1824 37.376 83.6096 83.5584 83.6096h128c46.1824 0 83.6608-37.4272 83.6608-83.6096v-172.2368c30.5664 0.0512 52.0192 0.3584 68.5568 2.56 18.688 2.56 24.9344 6.656 28.5184 10.24 3.6352 3.6352 7.68 9.8816 10.24 28.5696 2.6624 19.8656 2.7136 46.7968 2.7136 88.1664V415.5904c0 61.696-0.8192 79.872-7.936 95.232-7.0656 15.4112-20.3264 27.904-67.072 68.0448l-42.7008 36.608c-40.5504 34.7136-68.096 58.2144-91.2896 73.5232-22.1696 14.6432-36.096 18.7904-48.64 18.7904z"  horiz-adv-x="1024" />
      
      <glyph glyph-name="mima" unicode="&#59064;" d="M696.32 668.928a40.96 40.96 0 0 0 57.9584-57.856l-35.0208-35.072 77.6704-77.7216a40.96 40.96 0 0 0-57.856-57.9072l-77.7728 77.7216-101.5296-101.5296A211.6608 211.6608 0 1 0 501.76 474.4192l194.56 194.56zM384 428.3904a129.7408 129.7408 0 1 1 0.0512-259.4304A129.7408 129.7408 0 0 1 384 428.3904z"  horiz-adv-x="1024" />
      
      <glyph glyph-name="gouxuankong" unicode="&#59065;" d="M204.8 76.8h614.4V691.2H204.8v-614.4z m704-12.8a76.8 76.8 0 0 0-76.8-76.8H192a76.8 76.8 0 0 0-76.8 76.8V704a76.8 76.8 0 0 0 76.8 76.8h640a76.8 76.8 0 0 0 76.8-76.8v-640z"  horiz-adv-x="1024" />
      
      <glyph glyph-name="chakan" unicode="&#59066;" d="M512 674.133333c87.552 0 166.698667-38.485333 230.101333-84.053333 63.616-45.824 114.304-100.906667 145.621334-138.922667 14.08-17.066667 32.597333-37.12 32.597333-67.157333 0-29.994667-18.517333-50.048-32.597333-67.157333-31.317333-38.016-82.005333-93.098667-145.621334-138.88-63.402667-45.610667-142.549333-84.053333-230.101333-84.053334-87.552 0-166.698667 38.442667-230.101333 84.053334-63.616 45.781333-114.304 100.864-145.621334 138.88-14.08 17.066667-32.597333 37.12-32.597333 67.157333 0 29.994667 18.517333 50.048 32.597333 67.157333 31.317333 38.016 82.005333 93.098667 145.621334 138.88C345.301333 635.648 424.448 674.133333 512 674.133333z m0-68.266666c-67.584 0-132.821333-29.952-190.208-71.253334-57.088-41.088-103.509333-91.306667-132.778667-126.848-8.917333-10.837333-13.184-16.085333-15.658666-20.309333-1.664-2.730667-1.450667-3.114667-1.450667-3.456 0-0.341333-0.213333-0.725333 1.450667-3.456 2.474667-4.224 6.741333-9.514667 15.658666-20.309333 29.269333-35.541333 75.690667-85.76 132.778667-126.848 57.386667-41.301333 122.624-71.253333 190.208-71.253334s132.821333 29.952 190.208 71.253334c57.088 41.088 103.509333 91.306667 132.778667 126.848 8.917333 10.837333 13.184 16.085333 15.658666 20.309333 1.664 2.730667 1.450667 3.114667 1.450667 3.456 0 0.341333 0.213333 0.725333-1.450667 3.456-2.474667 4.224-6.741333 9.514667-15.658666 20.309333-29.269333 35.541333-75.690667 85.76-132.778667 126.848C644.821333 575.914667 579.584 605.866667 512 605.866667zM512 554.666667a170.666667 170.666667 0 1 0 0-341.333334 170.666667 170.666667 0 0 0 0 341.333334z m0-68.266667a102.4 102.4 0 1 1 0-204.8 102.4 102.4 0 0 1 0 204.8z"  horiz-adv-x="1024" />
      
      <glyph glyph-name="tishi" unicode="&#59067;" d="M512-36.571429C279.716571-36.571429 91.428571 151.716571 91.428571 384S279.716571 804.571429 512 804.571429s420.571429-188.288 420.571429-420.571429-188.288-420.571429-420.571429-420.571429z m0 73.142858c191.872 0 347.428571 155.556571 347.428571 347.428571S703.872 731.428571 512 731.428571 164.571429 575.872 164.571429 384s155.556571-347.428571 347.428571-347.428571z m0 225.517714a36.571429 36.571429 0 0 0-36.571429 36.571428V597.321143a36.571429 36.571429 0 1 0 73.142858 0v-298.660572a36.571429 36.571429 0 0 0-36.571429-36.571428z m0.018286-143.414857a46.317714 46.317714 0 1 0 0 92.653714 46.317714 46.317714 0 0 0 0-92.653714z"  horiz-adv-x="1024" />
      
      <glyph glyph-name="qingkong" unicode="&#59060;" d="M512 768a384 384 0 1 0 0-768 384 384 0 0 0 0 768z m0-323.6864L371.5072 584.8064 311.1936 524.4928 451.6864 384l-140.4928-140.4928 60.3136-60.3136L512 323.6864l140.4928-140.4928 60.3136 60.3136L572.3136 384l140.4928 140.4928-60.3136 60.3136L512 444.3136z"  horiz-adv-x="1024" />
      
      <glyph glyph-name="a-gerenzhongxin1" unicode="&#59059;" d="M154.339556 863.800889m113.777777 0l227.555556 0q113.777778 0 113.777778-113.777778l0-227.555555q0-113.777778-113.777778-113.777778l-227.555556 0q-113.777778 0-113.777777 113.777778l0 227.555555q0 113.777778 113.777777 113.777778ZM683.832889 192.568889c110.677333 60.871111 185.799111 178.602667 185.799111 313.457778 0 197.262222-160.398222 357.774222-357.632 357.774222-197.262222 0-357.660444-160.512-357.660444-357.745778 0-134.997333 75.235556-252.643556 185.799111-313.486222a204.202667 204.202667 0 0 1-88.519111-168.106667 120.519111 120.519111 0 0 1 120.433777-120.433778h279.864889a120.519111 120.519111 0 0 1 120.433778 120.433778 204.060444 204.060444 0 0 1-88.519111 168.106667zM234.609778 506.026667c0 153.031111 124.387556 277.418667 277.390222 277.418666 152.974222 0 277.390222-124.387556 277.390222-277.390222 0-152.888889-124.416-277.390222-277.390222-277.390222-153.031111 0-277.390222 124.501333-277.390222 277.390222z m417.28-521.756445H372.053333c-22.186667 0-40.163556 18.005333-40.163555 40.192a124.103111 124.103111 0 0 0 123.960889 123.960889h112.384a124.103111 124.103111 0 0 0 123.960889-123.960889 40.419556 40.419556 0 0 0-40.277334-40.192zM380.188444 620.088889c-20.679111 0-37.489778-16.782222-37.489777-37.489778v-103.395555a37.518222 37.518222 0 0 1 75.008 0v103.395555A37.575111 37.575111 0 0 1 380.188444 620.088889z m263.623112-178.289778c20.679111 0 37.489778 16.782222 37.489777 37.489778v103.310222a37.518222 37.518222 0 0 1-75.008 0v-103.395555c0-20.593778 16.782222-37.404444 37.518223-37.404445z"  horiz-adv-x="1024" />
      
      <glyph glyph-name="fenlei" unicode="&#59048;" d="M341.321143 335.250286c19.090286 0 37.083429 0.073143 51.712-1.901715 13.714286-1.828571 28.525714-5.924571 41.545143-16.420571l5.485714-4.900571 4.864-5.412572c10.496-12.982857 14.592-27.867429 16.457143-41.581714 1.938286-14.628571 1.865143-32.621714 1.865143-51.675429v-128c0-19.090286 0.073143-37.083429-1.901715-51.712-2.084571-15.689143-7.131429-32.841143-21.321142-46.994285-14.153143-14.189714-31.305143-19.236571-46.994286-21.321143-14.628571-1.974857-32.621714-1.901714-51.712-1.901715h-128c-19.090286 0-37.046857-0.073143-51.675429 1.901715-15.689143 2.084571-32.841143 7.131429-46.994285 21.321143-14.189714 14.153143-19.236571 31.305143-21.321143 46.994285-1.974857 14.628571-1.901714 32.621714-1.901715 51.712v128c0 19.053714-0.073143 37.046857 1.901715 51.675429 2.084571 15.689143 7.131429 32.841143 21.321143 46.994286 14.153143 14.189714 31.305143 19.236571 46.994285 21.321142 14.628571 1.974857 32.585143 1.901714 51.675429 1.901715h128z m414.902857-0.256a185.929143 185.929143 0 1 0-19.163429 0l9.581715 0.256 9.581714-0.256zM213.321143 262.107429c-21.138286 0-33.28-0.109714-41.910857-1.243429a40.338286 40.338286 0 0 1-4.754286-0.877714 40.228571 40.228571 0 0 1-0.841143-4.717715c-1.133714-8.594286-1.243429-20.772571-1.243428-41.910857v-128c0-21.138286 0.109714-33.353143 1.243428-41.984 0.292571-2.194286 0.658286-3.693714 0.914286-4.644571 0.950857-0.256 2.450286-0.621714 4.681143-0.914286 8.594286-1.133714 20.772571-1.243429 41.910857-1.243428h128c21.138286 0 33.353143 0.109714 41.947428 1.243428 2.230857 0.292571 3.730286 0.658286 4.681143 0.914286a36.937143 36.937143 0 0 1 0.914286 4.644571c1.170286 8.630857 1.243429 20.845714 1.243429 41.984v128c0 21.138286-0.073143 33.316571-1.243429 41.910857a37.924571 37.924571 0 0 1-0.914286 4.681143 38.034286 38.034286 0 0 1-4.681143 0.914286c-8.594286 1.170286-20.809143 1.243429-41.947428 1.243429h-128z m533.321143 0a112.786286 112.786286 0 1 1 0.073143-225.572572 112.786286 112.786286 0 0 1-0.073143 225.572572zM341.321143 804.571429c19.090286 0 37.083429 0.073143 51.712-1.901715 13.714286-1.828571 28.525714-5.924571 41.545143-16.420571l5.485714-4.900572 4.864-5.412571c10.496-13.019429 14.592-27.867429 16.457143-41.581714 1.938286-14.628571 1.865143-32.585143 1.865143-51.675429v-128c0-19.090286 0.073143-37.083429-1.901715-51.712-2.084571-15.689143-7.131429-32.841143-21.321142-46.994286-14.153143-14.189714-31.305143-19.236571-46.994286-21.321142-14.628571-1.974857-32.621714-1.901714-51.712-1.901715h-128c-19.090286 0-37.046857-0.073143-51.675429 1.901715-15.689143 2.084571-32.841143 7.131429-46.994285 21.321142-14.189714 14.153143-19.236571 31.305143-21.321143 46.994286-1.974857 14.628571-1.901714 32.621714-1.901715 51.712v128c0 19.090286-0.073143 37.046857 1.901715 51.675429 2.084571 15.689143 7.131429 32.841143 21.321143 46.994285 14.153143 14.189714 31.305143 19.236571 46.994285 21.321143 14.628571 1.974857 32.585143 1.901714 51.675429 1.901715h128z m469.321143 0c19.090286 0 37.083429 0.073143 51.712-1.901715 13.714286-1.828571 28.525714-5.924571 41.545143-16.420571l5.485714-4.900572 4.864-5.412571c10.496-13.019429 14.592-27.867429 16.457143-41.581714 1.938286-14.628571 1.865143-32.585143 1.865143-51.675429v-128c0-19.090286 0.073143-37.083429-1.901715-51.712-2.084571-15.689143-7.131429-32.841143-21.321143-46.994286-14.153143-14.189714-31.305143-19.236571-46.994285-21.321142-14.628571-1.974857-32.621714-1.901714-51.712-1.901715h-128c-19.053714 0-37.046857-0.073143-51.675429 1.901715-15.652571 2.084571-32.841143 7.131429-46.994286 21.321142-14.189714 14.153143-19.236571 31.341714-21.321142 46.994286-1.974857 14.628571-1.901714 32.621714-1.901715 51.712v128c0 19.090286-0.073143 37.046857 1.901715 51.675429 2.084571 15.689143 7.131429 32.841143 21.321142 46.994285 14.153143 14.189714 31.305143 19.236571 46.994286 21.321143 14.628571 1.974857 32.621714 1.901714 51.675429 1.901715h128z m-597.321143-73.142858c-21.138286 0-33.28-0.109714-41.910857-1.243428a39.862857 39.862857 0 0 1-4.754286-0.877714 39.862857 39.862857 0 0 1-0.841143-4.717715c-1.133714-8.594286-1.243429-20.772571-1.243428-41.910857v-128c0-21.138286 0.109714-33.353143 1.243428-41.947428 0.292571-2.230857 0.658286-3.730286 0.914286-4.681143 0.950857-0.256 2.450286-0.621714 4.681143-0.914286 8.594286-1.170286 20.772571-1.243429 41.910857-1.243429h128c21.138286 0 33.353143 0.073143 41.947428 1.243429 2.230857 0.292571 3.730286 0.658286 4.681143 0.914286 0.256 0.950857 0.621714 2.450286 0.914286 4.681143 1.170286 8.594286 1.243429 20.809143 1.243429 41.947428v128c0 21.138286-0.073143 33.28-1.243429 41.910857a37.668571 37.668571 0 0 1-0.914286 4.681143 37.668571 37.668571 0 0 1-4.681143 0.914286c-8.594286 1.133714-20.809143 1.243429-41.947428 1.243428h-128z m469.321143 0c-21.138286 0-33.316571-0.109714-41.910857-1.243428a40.228571 40.228571 0 0 1-4.754286-0.877714 40.338286 40.338286 0 0 1-0.841143-4.717715c-1.170286-8.594286-1.243429-20.772571-1.243429-41.910857v-128c0-21.138286 0.109714-33.353143 1.243429-41.947428 0.292571-2.230857 0.658286-3.730286 0.914286-4.681143 0.950857-0.256 2.450286-0.621714 4.681143-0.914286 8.594286-1.170286 20.772571-1.243429 41.910857-1.243429h128c21.138286 0 33.353143 0.073143 41.984 1.243429 2.194286 0.292571 3.693714 0.658286 4.644571 0.914286 0.256 0.950857 0.621714 2.450286 0.914286 4.681143 1.133714 8.594286 1.243429 20.809143 1.243428 41.947428v128c0 21.138286-0.109714 33.28-1.243428 41.910857a36.973714 36.973714 0 0 1-0.914286 4.681143 37.814857 37.814857 0 0 1-4.644571 0.914286c-8.630857 1.133714-20.845714 1.243429-41.984 1.243428h-128z"  horiz-adv-x="1024" />
      
      <glyph glyph-name="xiaoxi" unicode="&#59049;" d="M596.845714 761.856c39.936-0.182857 73.508571-0.877714 101.741715-3.766857 38.217143-3.876571 70.692571-12.068571 99.218285-31.122286 22.637714-15.104 42.057143-34.56 57.197715-57.197714 19.017143-28.525714 27.245714-60.964571 31.122285-99.181714 3.84-37.668571 3.803429-84.772571 3.803429-143.945143 0-59.136 0.036571-106.276571-3.803429-143.908572-3.876571-38.217143-12.068571-70.656-31.122285-99.181714a207.323429 207.323429 0 0 0-57.197715-57.197714c-24.868571-16.64-52.809143-25.014857-84.955428-29.476572-26.221714-3.620571-56.868571-4.754286-92.781715-5.156571l-37.156571-74.422857c-29.220571-58.404571-112.566857-58.404571-141.787429 0l-37.193142 74.422857c-35.913143 0.402286-66.56 1.536-92.745143 5.156571-32.182857 4.461714-60.050286 12.8-84.955429 29.476572a207.323429 207.323429 0 0 0-57.197714 57.197714c-19.053714 28.525714-27.245714 60.964571-31.122286 99.181714-3.84 37.632-3.803429 84.772571-3.803428 143.908572 0 59.172571-0.036571 106.313143 3.803428 143.945143 3.876571 38.217143 12.068571 70.656 31.122286 99.181714a207.250286 207.250286 0 0 0 57.197714 57.197714c28.525714 19.053714 60.964571 27.245714 99.181714 31.122286 37.668571 3.84 84.772571 3.803429 143.945143 3.803428l127.451429-0.036571z m-127.488-73.106286c-60.708571 0-103.497143 0-136.521143-3.401143-32.438857-3.291429-51.456-9.508571-65.974857-19.2-14.628571-9.801143-27.209143-22.381714-37.010285-37.010285-9.691429-14.518857-15.908571-33.536-19.2-65.974857-3.364571-33.060571-3.401143-75.849143-3.401143-136.521143 0-60.672 0-103.460571 3.401143-136.484572 3.291429-32.438857 9.508571-51.492571 19.2-66.011428 9.801143-14.628571 22.381714-27.245714 37.010285-37.010286 12.690286-8.448 28.818286-14.262857 54.308572-17.773714 26.112-3.620571 59.465143-4.571429 105.654857-4.754286a36.571429 36.571429 0 0 0 32.548571-20.260571l47.177143-94.354286a6.107429 6.107429 0 0 1 10.898286 0l47.725714 95.451428A36.571429 36.571429 0 0 0 597.211429 164.571429c46.189714 0.182857 79.542857 1.133714 105.654857 4.754285 25.490286 3.510857 41.691429 9.325714 54.345143 17.773715 14.628571 9.801143 27.209143 22.381714 37.010285 37.010285 9.691429 14.518857 15.872 33.572571 19.163429 66.011429 3.364571 33.024 3.437714 75.812571 3.437714 136.484571 0 60.708571-0.073143 103.497143-3.437714 136.521143-3.291429 32.438857-9.508571 51.456-19.163429 65.974857a134.217143 134.217143 0 0 1-37.010285 37.010286c-14.518857 9.691429-33.536 15.908571-66.011429 19.2-24.795429 2.56-55.04 3.145143-94.208 3.328l-42.276571 0.073143h-85.321143z m42.642286-310.857143a36.571429 36.571429 0 1 0 0-73.142857h-128a36.571429 36.571429 0 0 0 0 73.142857H512zM640 548.571429a36.571429 36.571429 0 1 0 0-73.142858h-256a36.571429 36.571429 0 1 0 0 73.142858h256z"  horiz-adv-x="1024" />
      
      <glyph glyph-name="zuohua" unicode="&#59050;" d="M667.168 155.168L438.304 384l228.864 228.832L612.8 667.2 329.696 384l283.136-283.168 54.336 54.336z"  horiz-adv-x="1024" />
      
      <glyph glyph-name="wodexihuan" unicode="&#59051;" d="M512 621.897143C591.433143 749.714286 777.801143 762.88 873.216 639.890286l13.165714-16.969143a258.56 258.56 0 0 0-27.245714-346.989714l-296.667429-278.674286c-4.571429-4.278857-9.874286-9.362286-14.957714-13.238857-5.522286-4.278857-13.531429-9.435429-24.356571-11.593143-7.350857-1.462857-14.957714-1.462857-22.308572 0a57.892571 57.892571 0 0 0-24.356571 11.593143c-5.046857 3.876571-10.422857 8.96-14.994286 13.238857l-296.667428 278.674286a258.56 258.56 0 0 0-27.245715 346.989714l13.238857 16.969143C246.198857 762.88 432.530286 749.714286 512 621.897143z m303.433143-26.806857c-67.291429 86.710857-202.386286 72.155429-249.673143-26.916572-21.577143-45.202286-85.942857-45.202286-107.52 0-47.286857 99.108571-182.345143 113.627429-249.636571 26.916572l-13.238858-17.005715a185.490286 185.490286 0 0 1 19.602286-248.868571l296.594286-278.637714 0.438857-0.365715 0.402286 0.365715 296.667428 278.674285a185.490286 185.490286 0 0 1 19.529143 248.832l-13.165714 17.005715z"  horiz-adv-x="1024" />
      
      <glyph glyph-name="youhua" unicode="&#59052;" d="M356.832 612.832L585.696 384l-228.864-228.832 54.336-54.336L694.304 384 411.2 667.168 356.8 612.8z"  horiz-adv-x="1024" />
      
      <glyph glyph-name="shengxu" unicode="&#59053;" d="M725.312 256l-30.144 30.144L512 103.04 328.832 286.144l-60.288-60.288 213.312-213.376 30.144-30.08 243.52 243.456-30.208 30.08zM725.312 512l-30.144-30.144L512 664.96 328.832 481.856l-60.288 60.288 213.312 213.376 30.144 30.08 243.52-243.456-30.208-30.08z"  horiz-adv-x="1024" />
      
      <glyph glyph-name="a-paixumoren" unicode="&#59054;" d="M725.312 256l-30.144 30.144L512 103.04 328.832 286.144l-60.288-60.288 213.312-213.376 30.144-30.08 243.52 243.456-30.208 30.08zM725.312 512l-30.144-30.144L512 664.96 328.832 481.856l-60.288 60.288 213.312 213.376 30.144 30.08 243.52-243.456-30.208-30.08z"  horiz-adv-x="1024" />
      
      <glyph glyph-name="gerenzhongxin" unicode="&#59055;" d="M512 249.892571c80.932571 0 160.365714-20.004571 226.011429-57.782857s115.2-92.123429 138.130285-156.233143a36.571429 36.571429 0 0 0-67.437714-28.050285l-1.426286 3.474285-3.254857 8.338286c-17.334857 41.581714-52.224 80.164571-102.436571 109.092572-53.577143 30.793143-120.246857 48.018286-189.586286 48.018285-69.339429 0-135.972571-17.188571-189.513143-48.018285-53.577143-30.829714-89.746286-72.704-105.728-117.430858l-1.462857-3.474285a36.608 36.608 0 0 0-67.437714 28.050285l4.608 11.922286c24.576 58.916571 71.972571 108.909714 133.485714 144.310857 65.682286 37.778286 145.115429 57.782857 226.048 57.782857z m0 512A207.250286 207.250286 0 1 0 512 347.428571 207.250286 207.250286 0 0 0 512 761.892571z m0-73.142857a134.107429 134.107429 0 1 1 0-268.251428 134.107429 134.107429 0 0 1 0 268.251428z"  horiz-adv-x="1024" />
      
      <glyph glyph-name="fenxiang" unicode="&#59056;" d="M747.04 729.472c26.368 4.672 58.688 5.632 84.512-16.128l5.12-4.704 4.64-5.056c21.76-25.824 20.8-58.176 16.128-84.576-5.088-28.416-17.28-64.64-31.36-106.944L712 169.696c-14.208-42.624-25.376-76.16-35.072-101.024-9.152-23.488-19.36-45.824-33.952-61.024a147.104 147.104 0 0 0-212.096 0c-14.624 15.2-24.832 37.536-33.984 61.024-9.696 24.896-20.864 58.4-35.072 101.024-6.208 18.688-7.968 23.488-10.048 27.456a63.904 63.904 0 0 1-26.624 26.56c-3.936 2.112-8.768 3.84-27.456 10.08-42.624 14.208-76.128 25.376-101.024 35.104-23.456 9.152-45.792 19.328-60.992 33.92a147.104 147.104 0 0 0 0 212.096c15.2 14.624 37.536 24.832 60.992 33.984 24.896 9.696 58.4 20.896 101.024 35.104l342.368 114.08c42.304 14.08 78.56 26.304 106.976 31.36z m29.952-80.48a71.424 71.424 0 0 1-15.424-1.472c-20.96-3.744-50.24-13.376-95.232-28.384l-342.336-114.08c-43.52-14.496-74.624-24.896-97.12-33.664-23.808-9.28-31.616-14.56-33.6-16.448a63.904 63.904 0 0 1 0-92.128c1.984-1.856 9.76-7.104 33.6-16.416 22.496-8.768 53.6-19.168 97.12-33.664 16-5.344 28.576-9.376 40-15.424a147.104 147.104 0 0 0 61.28-61.248c6.048-11.456 10.08-24 15.424-40.032 14.496-43.52 24.896-74.624 33.664-97.12 9.28-23.84 14.56-31.648 16.448-33.6a63.904 63.904 0 0 1 92.128 0c1.856 1.92 7.104 9.728 16.416 33.6 8.768 22.496 19.168 53.6 33.664 97.12l114.112 342.336c15.008 44.992 24.64 74.24 28.384 95.232 1.408 7.968 1.6 12.736 1.472 15.36z"  horiz-adv-x="1024" />
      
      <glyph glyph-name="jiangxu" unicode="&#59057;" d="M725.312 256l-30.144 30.144L512 103.04 328.832 286.144l-60.288-60.288 213.312-213.376 30.144-30.08 243.52 243.456-30.208 30.08zM725.312 512l-30.144-30.144L512 664.96 328.832 481.856l-60.288 60.288 213.312 213.376 30.144 30.08 243.52-243.456-30.208-30.08z"  horiz-adv-x="1024" />
      
      <glyph glyph-name="gengduo" unicode="&#59058;" d="M550.4 422.4h256v-76.8h-256v-256h-76.8v256h-256v76.8h256v256h76.8v-256z"  horiz-adv-x="1024" />
      
      <glyph glyph-name="a-goicon" unicode="&#59047;" d="M773.705143 519.753143a90.989714 90.989714 0 0 0 0-157.696l-409.6-236.544a90.989714 90.989714 0 0 0-136.484572 78.994286V677.156571c0 70.217143 75.776 113.956571 136.484572 78.994286l409.6-236.544z"  horiz-adv-x="1024" />
      
      <glyph glyph-name="sanjiaozhoukefu" unicode="&#59046;" d="M812.373333 171.050667c-37.546667-120.192-150.272-200.32-275.456-200.32h-12.544v75.093333h12.544c82.645333 0 160.256 50.090667 192.810667 125.184h-5.034667v275.456h75.136c-7.509333 157.781333-140.202667 282.965333-300.458666 275.456-150.272-5.034667-267.946667-125.226667-275.456-275.456h75.093333v-275.413333H73.685333v275.413333h75.093334C156.288 646.826667 324.053333 804.565333 524.373333 797.013333a365.397333 365.397333 0 0 0 350.592-350.549333h75.093334v-275.413333H812.373333zM223.914667 371.370667h-75.093334v-125.226667h75.093334v125.226667z m651.050666 0h-75.136v-125.226667h75.093334v125.226667z m-250.453333-125.226667H399.232v75.093333h225.365333v-75.093333z"  horiz-adv-x="1024" />
      
      <glyph glyph-name="jiaoyianquan" unicode="&#59043;" d="M832 761.6a89.6 89.6 0 0 0 56.832-20.288l6.528-5.952 5.952-6.528c13.056-16 20.288-36.032 20.288-56.832v-234.816c0-377.088-321.536-500.864-381.44-520.704l-0.128 0.128a86.144 86.144 0 0 0-56.128 0v-0.128C423.936-63.68 102.4 60.16 102.4 437.184V672a89.6 89.6 0 0 0 26.24 63.36l6.528 5.952A89.6 89.6 0 0 0 192 761.6h640zM217.6 437.184c0-281.984 227.52-384.448 294.4-408.448 66.88 24 294.4 126.464 294.4 408.448V646.4H217.6V437.12z m435.072 88.32a57.6 57.6 0 0 0 79.168-82.88l-4.096-4.288-234.816-224a57.6 57.6 0 0 0-79.552 0L296.192 326.4l-4.096 4.288a57.6 57.6 0 0 0 79.232 82.88l4.48-3.84 77.44-73.984 195.008 185.984 4.48 3.84z"  horiz-adv-x="1024" />
      
      <glyph glyph-name="jingzhunchaxun" unicode="&#59044;" d="M936.768 40.704a57.6 57.6 0 0 0-81.472-81.472L896 0l40.768 40.768zM464 825.6a393.6 393.6 0 0 0 316.032-628.16l156.736-156.8L896 0l-40.768-40.704-156.736 156.736A393.6 393.6 0 1 0 464 825.6z m0-115.2a278.4 278.4 0 1 1 0-556.8 278.4 278.4 0 0 1 0 556.8z"  horiz-adv-x="1024" />
      
      <glyph glyph-name="jishubaozhang" unicode="&#59045;" d="M480 857.6a185.6 185.6 0 0 0 185.6-185.6v-38.4h190.08a121.28 121.28 0 0 0 120.192-136.64l0.064-0.064-48-384a121.728 121.728 0 0 0-120.064-106.496H128A89.6 89.6 0 0 0 38.784 87.04L38.4 96V448a89.6 89.6 0 0 0 26.24 63.36l6.528 5.952A89.6 89.6 0 0 0 128 537.6h156.416l144.064 288.128 4.16 7.04A57.6 57.6 0 0 0 480 857.6zM377.6 466.56v-344.96h429.696a6.4 6.4 0 0 1 4.288 1.6 6.4 6.4 0 0 1 2.048 3.968l48 384.448-0.128 2.56a6.08 6.08 0 0 1-3.2 3.712 6.144 6.144 0 0 1-2.56 0.512H608a57.6 57.6 0 0 0-57.6 57.6V672a70.336 70.336 0 0 1-38.656 62.784L377.6 466.56zM153.6 121.6h108.8V422.4H153.6v-300.8z"  horiz-adv-x="1024" />
      
      <glyph glyph-name="lianjie" unicode="&#59042;" d="M318.72 449.28a32 32 0 0 0 45.184-45.248L278.592 318.72a118.912 118.912 0 0 1 168.064-168.128l85.312 85.376a32 32 0 0 0 45.248-45.248l-85.312-85.376a182.848 182.848 0 0 0-258.56 258.624L318.72 449.28z m260.992 46.72a32 32 0 0 0 44.416-44.288l-4.16-4.992L449.28 276.032a32 32 0 1 0-45.248 45.248L574.72 491.968l4.992 4.096z m-47.744 166.592a182.912 182.912 0 0 0 258.624-258.56L705.28 318.72a32 32 0 0 0-45.248 45.248l85.376 85.312a118.912 118.912 0 0 1-159.04 176.256l-9.088-8.192-85.312-85.312a32 32 0 0 0-45.248 45.248l85.312 85.312z"  horiz-adv-x="1024" />
      
      <glyph glyph-name="light" unicode="&#59040;" d="M320.455111 127.544889a36.465778 36.465778 0 0 0 49.436445 13.198222 35.555556 35.555556 0 0 0 13.084444-48.924444l-52.451556-89.941334a36.465778 36.465778 0 0 0-49.493333-13.255111 35.612444 35.612444 0 0 0-13.084444 48.924445l52.508444 89.998222z m332.401778 13.880889a36.238222 36.238222 0 0 0 49.379555-13.027556l52.053334-89.656889a36.238222 36.238222 0 0 0-62.748445-36.010666l-52.110222 89.713777a35.84 35.84 0 0 0 13.425778 48.981334z m-143.132445-47.331556c19.911111 0 36.181333-16.213333 36.181334-36.181333v-34.872889a36.181333 36.181333 0 0 0-72.248889 0v34.872889c0 19.911111 16.156444 36.181333 36.067555 36.181333z m0.113778 535.722667c139.662222 0 252.928-111.957333 252.928-250.083556 0-138.069333-113.208889-249.969778-252.928-249.969777-139.662222 0-252.871111 111.957333-252.871111 249.969777 0 138.069333 113.208889 250.083556 252.871111 250.083556z m-296.903111-379.676445a36.181333 36.181333 0 1 0 36.124445-62.577777l-30.151112-17.408a36.181333 36.181333 0 0 0-36.181333 62.577777l30.208 17.408z m544.256-13.198222a36.238222 36.238222 0 0 0 49.436445 13.255111l30.208-17.464889a36.181333 36.181333 0 0 0-36.181334-62.577777l-30.208 17.408a36.181333 36.181333 0 0 0-13.255111 49.379555zM193.024 419.100444a35.84 35.84 0 1 0-0.170667-71.68l-104.675555-0.341333a35.84 35.84 0 0 0-36.010667 35.84c0 19.740444 16.270222 35.84 36.238222 35.896889l104.618667 0.284444z m742.741333 1.820445a35.84 35.84 0 1 0-0.227555-71.68l-104.618667-0.341333a35.84 35.84 0 1 0 0.227556 71.736888l104.675555 0.284445zM169.528889 576.284444a36.124444 36.124444 0 0 0 49.379555 13.255112l30.151112-17.464889a36.124444 36.124444 0 1 0-36.067556-62.577778l-30.208 17.464889a36.124444 36.124444 0 0 0-13.255111 49.379555z m631.182222 13.312a36.181333 36.181333 0 0 0 36.124445-62.577777l-30.151112-17.464889a36.181333 36.181333 0 0 0-36.181333 62.577778l30.208 17.464888zM283.079111 778.183111a36.238222 36.238222 0 0 0 49.379556-12.970667l52.053333-89.6a36.238222 36.238222 0 0 0-62.748444-36.067555L269.653333 729.201778a35.84 35.84 0 0 0 13.425778 48.981333z m410.396445-12.060444a36.408889 36.408889 0 0 0 49.436444 13.255111 35.555556 35.555556 0 0 0 13.084444-48.924445l-52.508444-89.998222a36.408889 36.408889 0 0 0-49.436444-13.198222 35.555556 35.555556 0 0 0-13.084445 48.924444l52.508445 89.941334z m-183.751112 6.599111c19.968 0 36.124444-16.213333 36.181334-36.124445v-34.872889a36.181333 36.181333 0 1 0-72.248889 0v34.872889c0 19.911111 16.156444 36.124444 36.124444 36.124445z"  horiz-adv-x="1024" />
      
      <glyph glyph-name="dark" unicode="&#59041;" d="M501.532444 749.340444c54.215111 0 105.756444-11.548444 152.120889-32.312888 32.881778-14.677333 22.072889-61.553778-10.353777-77.141334-95.857778-46.08-161.905778-143.246222-161.905778-255.658666 0-112.64 66.275556-209.92 162.304-255.829334 32.483556-15.530667 43.406222-62.407111 10.581333-77.198222a371.712 371.712 0 0 0-152.746667-32.540444C297.528889 18.659556 131.982222 182.215111 131.982222 384c0 201.784889 165.489778 365.340444 369.550222 365.340444z m287.800889-486.912c4.266667 0 8.192-3.811556 11.434667-10.353777 8.476444-17.066667 22.186667-30.947556 39.424-39.139556 6.826667-3.242667 10.808889-7.168 10.808889-11.434667 0-4.266667-3.982222-8.192-10.808889-11.434666a85.219556 85.219556 0 0 1-39.480889-39.082667c-3.242667-6.485333-7.168-10.296889-11.377778-10.296889-4.209778 0-8.135111 3.811556-11.377777 10.296889a85.504 85.504 0 0 1-39.424 39.139556c-6.769778 3.242667-10.752 7.111111-10.752 11.377777 0 4.266667 3.982222 8.135111 10.695111 11.377778 17.180444 8.192 30.947556 22.186667 39.424 39.196445 3.242667 6.542222 7.168 10.353778 11.434666 10.353777zM604.558222 343.608889c2.844444 0 5.461333-2.503111 7.623111-6.883556 5.575111-11.377778 14.791111-20.593778 26.168889-26.055111 4.551111-2.161778 7.168-4.778667 7.224889-7.623111 0-2.844444-2.673778-5.461333-7.168-7.623111-11.434667-5.461333-20.650667-14.791111-26.282667-26.112-2.161778-4.323556-4.778667-6.826667-7.566222-6.826667-2.844444 0-5.461333 2.503111-7.623111 6.826667-5.688889 11.377778-14.791111 20.650667-26.282667 26.168889-4.551111 2.104889-7.168 4.721778-7.224888 7.566222 0 2.844444 2.673778 5.461333 7.168 7.623111a56.718222 56.718222 0 0 1 26.339555 26.055111c2.161778 4.380444 4.778667 6.883556 7.623111 6.883556z m143.587556 284.16c16.156444 0 30.378667-23.552 39.082666-59.733333 5.12-21.504 22.186667-38.513778 43.804445-43.52 36.864-8.533333 60.984889-22.755556 60.984889-38.798223 0-15.985778-24.120889-30.151111-61.041778-38.684444-21.560889-5.006222-38.570667-21.959111-43.804444-43.52-8.647111-36.238222-22.869333-59.847111-39.025778-59.847111-16.099556 0-30.378667 23.665778-39.082667 59.904a58.993778 58.993778 0 0 1-43.747555 43.52c-36.750222 8.533333-60.757333 22.698667-60.757334 38.684444 0 15.928889 24.007111 30.037333 60.757334 38.627556 21.617778 5.006222 38.570667 22.016 43.747555 43.52 8.704 36.238222 22.983111 59.847111 39.082667 59.847111z"  horiz-adv-x="1024" />
      
      <glyph glyph-name="zhiding" unicode="&#59039;" d="M494.665143 61.037714c17.700571 0 35.328-2.413714 52.406857-7.021714a38.034286 38.034286 0 0 0 24.210286-53.796571l-42.313143-84.699429a38.107429 38.107429 0 0 0-68.132572 0l-42.349714 84.772571a38.217143 38.217143 0 0 0-0.694857 32.658286 38.107429 38.107429 0 0 0 24.941714 21.174857c16.932571 4.534857 34.377143 6.875429 51.931429 6.912z m2.048 799.817143c140.8 0 306.578286-191.817143 306.578286-385.170286 0-25.490286-1.938286-50.724571-5.814858-75.410285l-1.828571-10.825143 0.694857-0.512c85.467429-63.341714 104.96-180.992 44.032-267.264l-3.328-4.571429-21.833143-29.147428a68.059429 68.059429 0 0 0-89.929143-16.822857l-3.218285 2.121142-85.284572 59.611429-1.389714-0.914286c-40.228571-25.6-84.845714-39.862857-131.291429-41.252571l-7.424-0.109714c-49.664 0-97.462857 14.884571-140.251428 42.422857l-1.609143 1.024-86.893714-60.781715c-28.818286-20.114286-68.425143-14.884571-90.770286 11.629715l-2.413714 3.072-21.833143 29.147428c-64.950857 86.637714-46.262857 207.36 40.704 271.835429l3.84 2.816-1.682286 10.24a482.523429 482.523429 0 0 0-5.485714 61.257143l-0.146286 12.434285c0 196.096 160.438857 385.097143 306.541714 385.097143l0.036572 0.036572z m0-76.251428c-101.046857 0-230.436571-152.393143-230.436572-308.918858 0-27.574857 2.742857-54.747429 8.082286-80.969142l2.486857-11.190858 5.924572-25.124571-40.886857-28.525714c-54.491429-38.107429-67.584-110.08-30.72-163.328l2.669714-3.803429 16.896-22.528 126.061714 88.137143 22.308572-17.92c35.584-28.562286 75.885714-43.629714 117.577142-43.666286 39.058286 0 76.8 13.202286 110.665143 38.290286l5.632 4.315429 22.198857 17.554285 123.977143-86.747428 16.896 22.564571c39.241143 52.297143 28.342857 124.672-24.173714 164.352l-3.84 2.742857-37.924571 26.550857 6.070857 25.234286c7.204571 30.134857 10.971429 61.732571 10.971428 94.061714 0 153.526857-134.363429 308.918857-230.4 308.918858z m105.545143-217.417143a45.641143 45.641143 0 0 0 40.301714-74.093715c-33.645714-41.581714-81.700571-62.537143-140.068571-62.537142-58.989714 0-106.532571 21.504-137.654858 64.438857a45.604571 45.604571 0 0 0 10.093715 63.744 45.677714 45.677714 0 0 0 61.44-7.204572l2.304-2.889143c13.019429-17.92 32.658286-26.843429 63.853714-26.843428 29.878857 0 50.797714 8.301714 66.121143 25.197714l2.925714 3.510857c7.606857 9.398857 18.651429 15.36 30.72 16.676572z"  horiz-adv-x="1024" />
      
      </font>
</defs>
</svg>
